<?xml version="1.0" standalone="no"?>
<!DOCTYPE svg PUBLIC "-//W3C//DTD SVG 1.1//EN" "http://www.w3.org/Graphics/SVG/1.1/DTD/svg11.dtd" >
<svg xmlns="http://www.w3.org/2000/svg">
<metadata>Generated by IcoMoon</metadata>
<defs>
<font id="icomoon" horiz-adv-x="1024">
<font-face units-per-em="1024" ascent="960" descent="-64" />
<missing-glyph horiz-adv-x="1024" />
<glyph unicode="&#x20;" horiz-adv-x="512" d="" />
<glyph unicode="&#xe900;" glyph-name="minus-circle" d="M512 789.327c188.204 0 341.333-153.124 341.333-341.321s-153.129-341.346-341.333-341.346c-188.204 0-341.333 153.148-341.333 341.346s153.129 341.321 341.333 341.321zM512 713.486c-146.383 0-265.49-119.102-265.49-265.48s119.106-265.48 265.49-265.48c146.383 0 265.49 119.102 265.49 265.48s-119.106 265.48-265.49 265.48zM625.785 485.946v-75.865h-227.58v75.865h227.58z" />
<glyph unicode="&#xe901;" glyph-name="plus-circle" d="M511.974 789.347c188.222 0 341.346-153.124 341.346-341.321s-153.124-341.346-341.346-341.346c-188.197 0-341.321 153.148-341.321 341.346s153.124 341.321 341.321 341.321zM511.974 713.506c-146.378 0-265.48-119.102-265.48-265.48s119.102-265.48 265.48-265.48c146.403 0 265.48 119.102 265.48 265.48s-119.077 265.48-265.48 265.48zM549.902 561.802v-75.865h75.865v-75.841h-75.865v-75.865h-75.841v75.865h-75.865v75.841h75.865v75.865h75.841z" />
<glyph unicode="&#xe902;" glyph-name="add-user" d="M457.856 746.661c47.465-0.583 76.642-40.979 99.904-60.539 24.104-20.258 13.314-54.519 17.224-96.117 1.807-19.32 13.809-5.413 21.629-30.988 5.915-19.272-1.312-70.518-17.026-88.394-15.467-17.611-14.254-67.198-39.521-86.012-26.95-20.041-43.803-5.004-2.475-85.916 20.837-40.829 157.343-26.008 184.218-61.712 18.302-24.252 20.335-74.642 20.561-85.541l0.028-2.108h-614.399l0.035 2.108c0.239 10.898 2.253 61.289 20.555 85.541 26.875 35.704 163.381 20.884 184.218 61.664 41.353 80.96 24.45 65.923-2.475 85.964-25.267 18.814-24.054 68.401-39.521 86.012-15.69 17.876-22.941 69.123-17.026 88.394 7.82 25.575 19.823 11.669 21.629 30.988 3.935 41.599 3.242 150.684 105.646 140.050 21.505 12.006 40.264 16.793 56.795 16.607zM819.209 559.998v-74.68h76.791v-74.68h-76.791v-74.656h-76.815v74.656h-76.791v74.68h76.791v74.68h76.815z" />
<glyph unicode="&#xe903;" glyph-name="alarm-clock" d="M550.106 789.333v-78.481c150.154-18.771 266.76-146.354 266.76-300.773 0-167.3-136.769-303.413-304.875-303.413s-304.875 136.113-304.875 303.413c0 154.419 116.631 282.002 266.784 300.773v0 78.481h76.207zM511.99 637.627c-126.086 0-228.644-102.091-228.644-227.547 0-125.481 102.558-227.572 228.644-227.572s228.669 102.091 228.669 227.572c0 125.457-102.583 227.547-228.669 227.547zM550.101 561.764v-113.774h76.231v-75.841h-152.438v189.615h76.207zM246.873 787.693l53.882-53.624-76.207-75.865-53.882 53.648 76.207 75.841zM777.102 787.688l76.231-75.841-53.882-53.624-76.231 75.841 53.882 53.624z" />
<glyph unicode="&#xe904;" glyph-name="alert" d="M883.797 267.712l-271.79 483.145c-29.179 51.857-70.107 80.393-115.246 80.393-45.179 0-86.107-28.536-115.282-80.393l-271.753-483.145c-29.036-51.643-32.25-101.897-9.071-141.568 23.179-39.607 68.607-61.429 127.854-61.429h536.503c59.286 0 104.677 21.821 127.854 61.429 23.179 39.643 19.964 89.928-9.071 141.568h0.003zM838.297 158.107c-11.215-19.143-37.893-30.072-73.25-30.072h-536.503c-35.357 0-62.072 11-73.25 30.072-11.215 19.179-7.679 47.822 9.607 78.608l271.753 483.145c17.25 30.608 39.142 48.143 60.143 48.143s42.893-17.536 60.071-48.143l271.753-483.145c17.321-30.786 20.821-59.429 9.679-78.608h-0.004zM496.762 290.889c-23 0-41.643-18.643-41.643-41.643 0-23.035 18.643-41.714 41.643-41.714 23.035 0 41.679 18.643 41.679 41.714 0 22.964-18.643 41.643-41.679 41.643zM496.762 592.75c-23 0-41.643-18.643-41.643-41.643 0-1.25 0.25-2.357 0.321-3.536h-0.214l16.607-201.819h0.143c1.071-12.785 11.714-22.928 24.785-22.928 13.107 0 23.715 10.107 24.821 22.928h0.143l16.607 201.819h-0.214c0.107 1.179 0.321 2.286 0.321 3.536 0 22.964-18.643 41.643-41.679 41.643h0.001z" />
<glyph unicode="&#xe905;" glyph-name="minus" d="M856.086 408h-688.173v80h688.173v-80z" />
<glyph unicode="&#xe906;" glyph-name="x-twitter" horiz-adv-x="1001" d="M703.533 774.2h113.054l-246.993-277.601 290.566-377.758h-227.508l-178.196 229.106-203.894-229.106h-113.123l264.181 296.927-278.74 358.432h233.286l161.073-209.413 186.294 209.413zM663.851 185.385h62.648l-404.373 525.766h-67.224l408.949-525.766z" />
<glyph unicode="&#xe907;" glyph-name="ah-warning" d="M918.763 63.733h-813.525c-17.673 0-31.999 14.327-31.999 32 0 5.891 1.592 11.41 4.369 16.151l-0.082-0.151 406.763 704.533c5.636 9.632 15.93 15.999 27.712 15.999s22.076-6.367 27.63-15.848l0.082-0.151 406.763-704.533c2.69-4.587 4.279-10.103 4.279-15.989 0-17.672-14.321-32-31.99-32.011h-0.001zM160.672 127.733h702.656l-351.328 608.533-351.328-608.533zM549.259 219.594c0-22.38-18.143-40.523-40.523-40.523s-40.523 18.143-40.523 40.523c0 22.38 18.143 40.523 40.523 40.523s40.523-18.143 40.523-40.523zM476.736 582.869h64v-284.384h-64z" />
<glyph unicode="&#xe908;" glyph-name="ah-bolt" d="M406.955-8.48c-17.671 0.003-31.994 14.329-31.994 32 0 0.984 0.044 1.957 0.131 2.919l-0.009-0.124 27.744 317.12c0.029 0.292 0.045 0.632 0.045 0.976 0 2.767-1.063 5.286-2.804 7.17l0.007-0.007c-1.942 2.132-4.73 3.466-7.829 3.467v0l-228.064 0.597c-17.636 0.049-31.914 14.357-31.914 32 0 8.444 3.27 16.124 8.614 21.842l-0.017-0.018 453.397 485.963c5.857 6.264 14.171 10.169 23.396 10.169 17.673 0 32-14.327 32-32 0-0.981-0.044-1.952-0.131-2.911l0.009 0.124-27.755-317.131c-0.028-0.291-0.045-0.628-0.045-0.97 0-2.766 1.063-5.283 2.803-7.166l-0.006 0.007c1.939-2.133 4.725-3.467 7.823-3.467 0.006 0 0.012 0 0.018 0h-0.001l228.053-0.597c17.64-0.043 31.924-14.353 31.924-32 0-8.449-3.274-16.133-8.624-21.853l0.017 0.018-453.387-485.941c-6.187-6.635-14.72-10.176-23.403-10.176zM237.707 419.445l154.699-0.405c21.718-0.085 41.242-9.405 54.863-24.234l0.049-0.054c12.124-13.259 19.551-30.99 19.551-50.455 0-2.264-0.1-4.504-0.297-6.716l0.021 0.286-19.659-224.587 339.979 364.395-154.699 0.405c-21.728 0.078-41.262 9.404-54.884 24.244l-0.050 0.055c-12.112 13.253-19.532 30.973-19.532 50.427 0 2.274 0.101 4.524 0.3 6.746l-0.021-0.287 19.648 224.576-339.968-364.395z" />
<glyph unicode="&#xe909;" glyph-name="arrow-down-left" d="M213.576 715.467l88.94-0.041-0.182-414.207 445.447 445.447 62.886-62.886-445.447-445.447 414.187 0.203 0.041-88.94-566.113-0.263z" />
<glyph unicode="&#xe90a;" glyph-name="arrow-down-right" d="M810.424 715.467l-88.94-0.041 0.182-414.207-445.447 445.447-62.886-62.886 445.447-445.447-414.187 0.203-0.041-88.94 566.113-0.263z" />
<glyph unicode="&#xe90b;" glyph-name="arrow-down" d="M853.333 448.293l-53.673 53.622-249.74-249.951v537.369h-75.865v-537.369l-249.716 249.951-53.673-53.622 341.321-341.627z" />
<glyph unicode="&#xe90c;" glyph-name="arrow-left" d="M512.306 106.667l53.6 53.673-249.96 249.74h537.388v75.841h-537.388l249.96 249.74-53.6 53.673-341.639-341.346z" />
<glyph unicode="&#xe90d;" glyph-name="arrow-right" d="M511.707 789.333l-53.622-53.673 249.951-249.74h-537.369v-75.865h537.369l-249.951-249.716 53.622-53.673 341.627 341.321z" />
<glyph unicode="&#xe90e;" glyph-name="arrow-up-left" d="M213.597 180.515l88.922 0.061-0.182 414.235 445.462-445.478 62.868 62.87-445.462 445.478 414.221-0.182 0.061 88.925-566.153 0.243z" />
<glyph unicode="&#xe90f;" glyph-name="arrow-up-right" d="M810.403 180.515l-88.922 0.061 0.182 414.235-445.462-445.478-62.868 62.87 445.462 445.478-414.221-0.182-0.061 88.925 566.153 0.243z" />
<glyph unicode="&#xe910;" glyph-name="arrow-up" d="M170.667 447.694l53.673-53.6 249.74 249.96v-537.388h75.841v537.388l249.74-249.96 53.673 53.6-341.346 341.639z" />
<glyph unicode="&#xe911;" glyph-name="attach" d="M694.847 640.012v-307.21c0-105.868-82.038-191.988-182.859-191.988s-182.835 86.12-182.835 191.988v307.21c0 63.526 49.209 115.198 109.706 115.198s109.706-51.672 109.706-115.198v-307.21c0-21.159-16.403-38.407-36.576-38.407s-36.576 17.249-36.576 38.407v307.21h-73.129v-307.21c0-63.526 49.209-115.198 109.706-115.198 60.521 0 109.706 51.672 109.706 115.198v307.21c0 105.868-82.014 191.988-182.835 191.988s-182.859-86.12-182.859-191.988v-307.21c0-148.21 114.844-268.802 255.988-268.802s256.012 120.592 256.012 268.802v307.21h-73.153z" />
<glyph unicode="&#xe912;" glyph-name="back" d="M234.671 744.826h127.996c11.741 0 21.337-8.369 21.337-18.555v-225.692l397.242 244.677c2.502 0.909 5.224 1.411 8.084 1.411 11.823 0 21.337-8.297 21.337-18.555v-560.224c0-10.234-9.514-18.555-21.337-18.555-2.86 0-5.582 0.526-8.084 1.435l-397.242 244.653v-225.692c0-10.186-9.596-18.555-21.337-18.555h-127.996c-11.713 0-21.337 8.369-21.337 18.555v556.542c0 10.186 9.624 18.555 21.337 18.555z" />
<glyph unicode="&#xe913;" glyph-name="ah-check-balance" d="M315.2 38.933c-17.673 0-32 14.327-32 32v0 148.181h-110.645c-39.568 0.049-71.631 32.112-71.68 71.675v493.584c0.049 39.568 32.112 71.631 71.675 71.68h680.154c39.568-0.049 71.631-32.112 71.68-71.675v-493.605c-0.049-39.568-32.112-71.631-71.675-71.68h-344.090l-170.805-170.773c-5.79-5.787-13.787-9.365-22.62-9.365-0.005 0-0.010 0-0.015 0h0.001zM172.544 792.064c-4.242 0-7.68-3.438-7.68-7.68v0-493.611c0-4.235 3.445-7.68 7.68-7.68h142.656c17.673 0 32-14.327 32-32v0-102.912l125.525 125.547c5.79 5.787 13.787 9.365 22.62 9.365 0.005 0 0.010 0 0.015 0h357.343c4.242 0 7.68 3.438 7.68 7.68v0 493.6c0 4.242-3.438 7.68-7.68 7.68v0h-680.149zM651.819 338.741h-266.304c-16.96 0-32.128 10.123-38.613 25.792-2.025 4.732-3.203 10.238-3.203 16.020 0 11.538 4.69 21.981 12.268 29.526l34.070 34.081v163.104c0 70.699 53.696 129.557 122.24 134.005 36.619 2.379 71.467-10.091 98.155-35.093 25.457-23.978 41.327-57.89 41.387-95.509v-32.011h-64v32c0 0.080 0.001 0.175 0.001 0.271 0 19.156-8.128 36.415-21.123 48.514l-0.040 0.037c-11.863 11.201-27.906 18.085-45.557 18.085-1.648 0-3.282-0.060-4.9-0.178l0.217 0.013c-34.987-2.261-62.379-33.067-62.379-70.133v-176.352c0-8.491-3.371-16.629-9.376-22.624l-5.547-5.547h212.704v-64zM324.48 572.075h217.621v-64h-217.621z" />
<glyph unicode="&#xe914;" glyph-name="bell" d="M592.329 182.531c0-41.916-35.946-75.864-80.329-75.864s-80.329 33.948-80.329 75.864v0zM511.987 789.333c132.527 0 240.961-102.407 240.961-227.569v0-208.578l100.385-132.738h-682.667l100.385 132.738v208.578c0 125.162 108.434 227.569 240.935 227.569z" />
<glyph unicode="&#xe915;" glyph-name="bin" d="M773.319 639.978v-565.337c0-10.567-8.397-10.641-18.67-10.641v0h-485.335c-10.249 0-18.67 0.074-18.67 10.641v0 565.337h522.676zM474.664 524.807h-37.341v-307.205h37.341v307.205zM586.662 524.807h-37.341v-307.205h37.341v307.205zM594.393 832l74.658-76.814h122.946c10.274 0 18.67-17.199 18.67-27.766v0-49.023h-597.333v49.023c0 10.567 8.397 27.766 18.67 27.766v0h122.922l74.658 76.814h164.81zM578.922 793.593h-133.869l-37.341-38.407h208.551l-37.341 38.407z" />
<glyph unicode="&#xe916;" glyph-name="calendar" d="M675.207 789.332c19.315-0.185 35.043-14.448 36.656-32.509l0.135-3.429-0.574-53.618 110.253-0.026c41.047 0 74.323-31.864 74.323-71.17v-450.744c0-39.306-33.275-71.17-74.323-71.17h-619.355c-41.047 0-74.323 31.864-74.323 71.17v450.744c0 39.306 33.275 71.17 74.323 71.17l112.728 0.026 0.564 54.323c0.203 19.652 17.005 35.425 37.528 35.232 19.315-0.185 35.043-14.448 36.656-32.509l0.135-3.429-0.558-53.618h247.723l0.581 54.323c0.203 19.652 17.005 35.425 37.528 35.232zM821.675 431.872h-619.392l0.040-254.035h619.355l-0.003 254.035zM314.283 628.608l-111.96-0.028-0.040-125.54h619.392l0.003 125.54-110.979 0.028-0.507-49.735c-0.203-19.652-17.005-35.425-37.528-35.232-19.315 0.185-35.043 14.448-36.656 32.509l-0.135 3.429 0.501 49.030h-247.765l-0.481-49.735c-0.203-19.652-17.005-35.425-37.528-35.232-19.315 0.185-35.043 14.448-36.656 32.509l-0.135 3.429 0.474 49.030z" />
<glyph unicode="&#xe917;" glyph-name="camera" d="M627.198 746.667l76.815-75.78h38.407v18.927c0 10.428 8.637 18.951 19.179 18.951v0h38.407c10.542 0 19.204-8.523 19.204-18.951v0-18.927h57.586c10.567 0 19.204-8.548 19.204-18.951v0-492.633c0-10.428-8.637-18.951-19.204-18.951v0h-729.593c-10.567 0-19.204 8.523-19.204 18.951v0 492.633c0 10.404 8.637 18.951 19.204 18.951v0h172.809l76.79 75.78h230.395zM512 595.106c-106.066 0-191.988-84.816-191.988-189.487s85.922-189.487 191.988-189.487c106.066 0 192.012 84.816 192.012 189.487s-85.947 189.487-192.012 189.487zM512 519.304c63.625 0 115.198-50.87 115.198-113.683 0-62.788-51.573-113.707-115.198-113.707s-115.198 50.919-115.198 113.707c0 62.812 51.573 113.683 115.198 113.683z" />
<glyph unicode="&#xe918;" glyph-name="chevron-down" d="M515.032 377.308l241.359 241.359 60.34-60.34-301.699-301.699-301.699 301.699 60.34 60.34z" />
<glyph unicode="&#xe919;" glyph-name="chevron-left" d="M454.692 437.647l241.359-241.359-60.34-60.34-301.699 301.699 301.699 301.699 60.34-60.34z" />
<glyph unicode="&#xe91a;" glyph-name="chevron-right" d="M575.372 437.647l-241.359-241.359 60.34-60.34 301.699 301.699-301.699 301.699-60.34-60.34z" />
<glyph unicode="&#xe91b;" glyph-name="chevron-up" d="M515.032 497.987l241.359-241.359 60.34 60.34-301.699 301.699-301.699-301.699 60.34-60.34z" />
<glyph unicode="&#xe91c;" glyph-name="clock" d="M512 789.333c188.228 0 341.333-153.124 341.333-341.346s-153.105-341.321-341.333-341.321c-188.228 0-341.333 153.1-341.333 341.321s153.105 341.346 341.333 341.346zM512 713.468c-146.359 0-265.49-119.077-265.49-265.48 0-146.354 119.131-265.48 265.49-265.48 146.383 0 265.49 119.126 265.49 265.48 0 146.403-119.106 265.48-265.49 265.48zM549.929 637.617v-151.706h75.868v-75.841h-151.736v227.547h75.868z" />
<glyph unicode="&#xe91d;" glyph-name="cloud" d="M796.72 464.914c0 0.46 0.078 0.894 0.078 1.353 0 131.084-109.085 237.733-243.195 237.733-105.768 0-195.705-66.435-229.141-158.761-108.85-3.089-196.463-90.538-196.463-197.825 0-109.228 91.061-198.081 202.967-198.081h445.561c89.389 0 162.139 71.082 162.139 158.454 0 80.708-62.039 147.348-141.946 157.127z" />
<glyph unicode="&#xe91e;" glyph-name="cog" d="M533.346 325.921c-55.651 0-100.733 45.16-100.733 100.733 0 55.651 45.082 100.759 100.733 100.759 55.573 0 100.733-45.108 100.733-100.759 0-55.573-45.16-100.733-100.733-100.733v0zM896 366.224v120.885l-89.826 9.972c-6.648 25.865-16.854 50.276-30.098 72.738l56.43 70.531-85.489 85.489-70.505-56.43c-22.489 13.27-46.874 23.424-72.764 30.124l-9.946 89.8h-120.911l-9.972-89.8c-25.917-6.7-50.301-16.854-72.738-30.124l-70.557 56.43-85.515-85.489 56.482-70.531c-13.27-22.437-23.424-46.874-30.124-72.738l-89.8-9.972v-120.885l89.8-9.972c6.7-25.917 16.854-50.301 30.124-72.738l-56.482-70.557 85.515-85.489 70.557 56.456c22.437-13.27 46.822-23.45 72.738-30.098l9.972-89.826h120.911l9.946 89.826c25.891 6.648 50.276 16.828 72.713 30.098l70.557-56.456 85.489 85.489-56.43 70.557c13.296 22.437 23.45 46.822 30.098 72.738l89.826 9.972z" />
<glyph unicode="&#xe91f;" glyph-name="comment" d="M625.786 410.069c-20.946 0-37.933 16.986-37.933 37.931s16.987 37.931 37.933 37.931c20.946 0 37.933-16.986 37.933-37.931s-16.987-37.931-37.933-37.931zM512.012 410.069c-20.946 0-37.933 16.986-37.933 37.931s16.987 37.931 37.933 37.931c20.946 0 37.908-16.986 37.908-37.931s-16.962-37.931-37.908-37.931zM398.214 410.069c-20.922 0-37.908 16.986-37.908 37.931s16.987 37.931 37.908 37.931c20.946 0 37.933-16.986 37.933-37.931s-16.987-37.931-37.933-37.931zM512.012 789.333c-188.539 0-341.346-152.825-341.346-341.333 0-94.266 38.202-179.587 99.964-241.372l-99.964-99.961h341.346c188.539 0 341.321 152.801 341.321 341.333 0 188.508-152.782 341.333-341.321 341.333z" />
<glyph unicode="&#xe920;" glyph-name="crop" d="M360.313 296.306v303.413h303.424v-303.413h-303.424zM739.58 296.306v322.355c0 31.382-25.542 56.899-56.901 56.899h-322.366v113.774h-75.868v-113.774h-113.778v-75.841h113.778v-322.379c0-31.382 25.518-56.899 56.901-56.899h322.366v-113.774h75.868v113.774h113.753v75.865h-113.753z" />
<glyph unicode="&#xe921;" glyph-name="document" d="M735.988 165.537c0-13.611-10.826-24.747-24.059-24.747h-399.882c-13.232 0-24.059 11.136-24.059 24.747v564.926c0 13.586 10.826 24.747 24.059 24.747h213.21c13.256 0 24.059-11.161 24.059-24.747v-142.518c0-13.611 10.826-24.747 24.059-24.747h138.555c13.232 0 24.059-11.136 24.059-24.747v-372.913zM603.664 814.504c-9.359 9.627-21.196 17.496-26.344 17.496h-321.258c-13.232 0-28.269-1.93-33.394-4.331-5.149-2.376-9.335-26.009-9.335-39.62v-680.098c0-13.611 1.877-29.078 4.21-34.349 2.286-5.296 25.286-9.602 38.518-9.602h511.876c13.208 0 28.245 1.955 33.37 4.306 5.149 2.376 9.359 26.034 9.359 39.645v468.907c0 13.611-7.675 32.617-17.034 42.243l-189.969 195.403z" />
<glyph unicode="&#xe922;" glyph-name="drawer" d="M736.009 755.188v-499.181h-145.273c0-38.406-35.464-76.788-76.703-76.788-41.214 0-76.703 38.381-76.703 76.788h-149.339v499.181h448.018zM810.667 812.797c0 10.591-8.349 19.203-18.67 19.203h-559.992c-10.322 0-18.67-8.612-18.67-19.203v-729.594c0-10.591 8.349-19.203 18.67-19.203h559.992c10.322 0 18.67 8.612 18.67 19.203v729.594z" />
<glyph unicode="&#xe923;" glyph-name="dribble" d="M674.816 206.251c-2.901 17.579-18.517 103.125-56.661 208.213 94.080 15.019 175.573-10.752 181.589-12.757-12.928-81.195-59.435-151.296-124.928-195.456zM512 156.501c-70.613 0-135.253 25.088-185.685 66.773 3.84-3.072 6.485-5.077 6.485-5.077s55.936 121.899 228.779 182.101c0.64 0.256 1.237 0.427 1.92 0.597 41.003-106.581 57.984-195.797 62.251-221.312-34.944-14.891-73.429-23.083-113.749-23.083zM220.501 448.043c0 3.072 0.128 6.144 0.213 9.173 5.205-0.085 149.205-3.371 299.264 41.515 8.32-16.299 16.341-32.939 23.68-49.536-3.925-1.067-7.68-2.219-11.52-3.456-157.312-50.816-237.056-192.384-237.056-192.384s0.085-0.085 0.085-0.128c-46.421 51.627-74.667 119.893-74.667 194.816zM387.584 711.637c3.883-5.205 57.813-78.293 108.245-167.979-139.947-37.163-261.419-35.712-269.099-35.584 18.901 90.283 79.573 165.163 160.853 203.563zM704.469 666.752c-0.725-1.109-42.24-64.299-152.235-105.557-49.835 91.563-104.576 164.309-108.928 170.069 22.016 5.376 45.013 8.235 68.693 8.235 73.728 0 141.141-27.477 192.469-72.747zM803.413 450.901c-4.267 0.939-102.912 22.144-203.093 9.557-2.005 4.992-4.096 9.984-6.272 15.061-6.059 14.293-12.587 28.416-19.413 42.283 115.2 46.933 161.92 114.517 162.432 115.371 40.917-49.664 65.579-113.109 66.347-182.272zM846.336 516.693c-4.437 21.931-11.179 43.563-19.925 64.171-8.491 20.267-19.115 39.765-31.445 57.984-12.245 18.091-26.24 35.072-41.643 50.475-15.403 15.488-32.427 29.483-50.517 41.685-18.219 12.331-37.76 22.912-57.984 31.488-20.608 8.661-42.155 15.403-64.171 19.883-22.4 4.608-45.568 6.955-68.651 6.955-23.168 0-46.251-2.347-68.779-6.955-21.888-4.48-43.477-11.221-64.171-19.883-20.139-8.576-39.723-19.157-57.984-31.488-18.005-12.203-34.987-26.197-50.517-41.685-15.403-15.403-29.397-32.384-41.557-50.475-12.331-18.219-22.912-37.717-31.531-57.984-8.747-20.608-15.403-42.24-19.883-64.171-4.608-22.4-6.912-45.568-6.912-68.651 0-23.168 2.304-46.336 6.912-68.779 4.48-21.931 11.136-43.52 19.883-64.128 8.619-20.224 19.2-39.808 31.531-58.027 12.16-18.048 26.155-35.029 41.557-50.475 15.531-15.445 32.512-29.44 50.517-41.643 18.261-12.331 37.845-22.912 57.984-31.445 20.693-8.747 42.283-15.403 64.171-19.925 22.528-4.608 45.611-6.955 68.779-6.955 23.083 0 46.251 2.347 68.651 6.955 22.016 4.523 43.563 11.179 64.171 19.925 20.224 8.533 39.765 19.115 57.984 31.445 18.091 12.203 35.115 26.197 50.517 41.643s29.397 32.427 41.643 50.475c12.331 18.219 22.955 37.803 31.445 58.027 8.747 20.608 15.488 42.197 19.925 64.128 4.651 22.443 6.997 45.611 6.997 68.779 0 23.083-2.347 46.251-6.997 68.651z" />
<glyph unicode="&#xe924;" glyph-name="education" d="M531.204 746.667l364.796-227.363-364.796-227.363-326.414 203.43v-227.656c11.458-6.569 19.204-18.633 19.204-32.627 0-13.236-6.904-24.861-17.348-31.626v0l36.551-63.105h-115.198l36.551 63.105c-10.443 6.765-17.372 18.389-17.372 31.626 0 13.993 7.771 26.058 19.204 32.627v0 251.589l364.821 227.363zM281.607 402.709l249.599-155.588 249.599 155.564v-106.746l-249.599-155.588-249.599 155.588v106.77z" />
<glyph unicode="&#xe925;" glyph-name="email" d="M853.333 535.827v-285.92c0-8.386-7.699-15.241-17.070-15.241v0h-648.549c-9.371 0-17.048 6.854-17.048 15.241v0 285.92l341.333-152.387 341.333 152.387zM836.263 661.333c9.371 0 17.070-6.874 17.070-15.241v0-42.128l-341.333-152.368-341.333 152.368v42.128c0 8.367 7.677 15.241 17.048 15.241v0z" />
<glyph unicode="&#xe926;" glyph-name="eye-Closed" d="M231.96 746.667l614.383-627.214-54.294-55.453-134.102 136.902c-46.796-19.933-95.621-30.771-145.931-30.771-145.337 0-278.745 88.169-384.017 235.202 49.939 69.702 106.237 125.913 167.064 166.031v0l-117.398 119.849 54.294 55.453zM379.821 484.837c-13.512-23.293-21.406-50.426-21.406-79.504 0-86.603 68.746-156.81 153.602-156.81 28.459 0 54.987 8.11 77.828 21.929v0l-58.229 59.445c-6.286-1.743-12.794-2.981-19.599-2.981-42.416 0-76.813 35.192-76.813 78.417 0 6.973 1.188 13.642 2.846 20.059v0zM512.007 640.535c145.337 0 278.77-88.169 383.993-235.202-36.749-51.335-76.987-95.293-119.897-131.041v0l-111.483 113.811c0.619 5.659 0.99 11.419 0.99 17.23 0 86.603-68.771 156.81-153.602 156.81-5.692 0-11.334-0.379-16.877-1.011v0l-67.731 69.171c27.642 6.644 55.878 10.232 84.609 10.232z" />
<glyph unicode="&#xe927;" glyph-name="eye" d="M511.988 661.333c145.335 0 278.767-87.964 384.012-234.654-105.246-146.69-238.678-234.679-384.012-234.679-145.31 0-278.717 87.989-383.988 234.679 105.271 146.69 238.678 234.654 383.988 234.654zM511.988 583.124c-84.83 0-153.6-70.043-153.6-156.444s68.77-156.444 153.6-156.444c84.83 0 153.6 70.043 153.6 156.444s-68.77 156.444-153.6 156.444zM511.988 504.904c42.366 0 76.812-35.034 76.812-78.235 0-43.125-34.447-78.21-76.812-78.21-42.415 0-76.788 35.085-76.788 78.21 0 43.201 34.373 78.235 76.788 78.235z" />
<glyph unicode="&#xe928;" glyph-name="facebook" d="M921.595 445.493c0 227.597-183.382 412.101-409.6 412.101-226.216 0-409.6-184.505-409.6-412.101 0-205.689 149.784-376.181 345.6-407.097v287.973h-104v119.124h104v90.788c0 103.285 61.153 160.336 154.71 160.336 44.818 0 91.689-8.049 91.689-8.049v-101.416h-51.646c-50.881 0-66.753-31.769-66.753-64.359v-77.3h113.598l-18.158-119.124h-95.441v-287.973c195.817 30.917 345.6 201.4 345.6 407.097z" />
<glyph unicode="&#xe929;" glyph-name="filters" d="M436.154 334.217c49.541 0 91.555-31.676 107.148-75.867v0h291.065c10.412 0 18.966-8.53 18.966-18.942v0-37.933c0-10.437-8.554-18.967-18.966-18.967v0h-291.065c-15.593-44.166-57.607-75.842-107.148-75.842-49.566 0-91.555 31.676-107.197 75.842v0h-139.312c-10.436 0-18.966 8.53-18.966 18.967v0 37.933c0 10.412 8.53 18.942 18.966 18.942v0h139.312c15.642 44.19 57.631 75.867 107.197 75.867zM436.154 277.317c-31.431 0-56.898-25.468-56.898-56.875 0-31.432 25.467-56.9 56.898-56.9 31.406 0 56.898 25.468 56.898 56.9 0 31.407-25.492 56.875-56.898 56.875zM663.698 561.756c49.566 0 91.555-31.652 107.173-75.842v0h63.497c10.412 0 18.966-8.53 18.966-18.942v0-37.933c0-10.437-8.554-18.967-18.966-18.967v0h-63.497c-15.618-44.166-57.607-75.867-107.173-75.867-49.541 0-91.555 31.701-107.173 75.867v0h-366.88c-10.436 0-18.966 8.53-18.966 18.967v0 37.933c0 10.412 8.53 18.942 18.966 18.942v0h366.88c15.618 44.19 57.631 75.842 107.173 75.842zM663.698 504.88c-31.431 0-56.898-25.468-56.898-56.875 0-31.432 25.467-56.9 56.898-56.9 31.406 0 56.898 25.468 56.898 56.9 0 31.407-25.492 56.875-56.898 56.875zM360.302 789.333c49.541 0 91.555-31.676 107.173-75.867v0h366.88c10.436 0 18.966-8.53 18.966-18.942v0-37.933c0-10.437-8.53-18.967-18.966-18.967v0h-366.88c-15.618-44.19-57.631-75.867-107.173-75.867-49.566 0-91.555 31.676-107.173 75.867v0h-63.497c-10.412 0-18.966 8.53-18.966 18.967v0 37.933c0 10.412 8.554 18.942 18.966 18.942v0h63.497c15.618 44.19 57.607 75.867 107.173 75.867zM360.302 732.433c-31.431 0-56.898-25.468-56.898-56.875 0-31.432 25.467-56.9 56.898-56.9 31.406 0 56.898 25.468 56.898 56.9 0 31.407-25.492 56.875-56.898 56.875z" />
<glyph unicode="&#xe92a;" glyph-name="ah-cross" d="M127.861 787.253l45.248 45.248 723.627-723.637-45.248-45.248zM127.861 108.864l723.627 723.627 45.248-45.237-723.627-723.637z" />
<glyph unicode="&#xe92b;" glyph-name="ah-documents" d="M837.12 123.2h-543.328c-17.673 0-32 14.327-32 32v0 692.267c0 17.673 14.327 32 32 32v0h271.648c8.48 0 16.608-3.36 22.613-9.344l271.659-271.083c5.806-5.793 9.397-13.803 9.397-22.652 0-0.001 0-0.003 0-0.004v0-421.184c0-17.673-14.327-32-32-32v0zM325.803 187.2h479.307v375.915l-252.885 252.352h-226.421v-628.267zM729.6 15.68h-543.339c-17.673 0-32 14.327-32 32v0 692.267h64v-660.267h511.339v-64zM837.12 544.384h-223.893c-43.989 0-79.787 35.797-79.787 79.787v223.296h64v-223.296c0-8.704 7.083-15.787 15.787-15.787h223.893v-64z" />
<glyph unicode="&#xe92c;" glyph-name="flickr" d="M322.091 618.667c83.584 0 151.424-67.797 151.424-151.381s-67.84-151.381-151.424-151.381c-83.627 0-151.424 67.797-151.424 151.381s67.797 151.381 151.424 151.381zM701.926 618.667c83.627 0 151.424-67.797 151.424-151.381s-67.797-151.381-151.424-151.381c-83.584 0-151.381 67.797-151.381 151.381s67.797 151.381 151.381 151.381z" />
<glyph unicode="&#xe92d;" glyph-name="folder" d="M128 168.003c0-10.249 8.661-18.67 19.203-18.67h729.594c10.542 0 19.203 8.421 19.203 18.67v448c0 10.249-8.661 18.646-19.203 18.646h-403.191l-115.194 112.018h-211.209c-10.542 0-19.203-8.397-19.203-18.67v-559.994z" />
<glyph unicode="&#xe92e;" glyph-name="forward" d="M790.853 744.694h-118.853c-10.902 0-19.813-8.966-19.813-19.88v-241.813l-368.867 262.154c-2.323 0.974-4.851 1.511-7.507 1.511-10.953 0-19.813-8.89-19.813-19.88v-600.24c0-10.965 8.86-19.88 19.813-19.88 2.655 0 5.183 0.564 7.507 1.537l368.867 262.128v-241.813c0-10.913 8.911-19.88 19.813-19.88h118.853c10.877 0 19.813 8.966 19.813 19.88v596.295c0 10.913-8.936 19.88-19.813 19.88z" />
<glyph unicode="&#xe92f;" glyph-name="ah-email" d="M920.053 107.392h-816.725c-17.673 0-32 14.327-32 32v0 616.107c0 17.673 14.327 32 32 32v0h816.725c17.673 0 32-14.327 32-32v0-616.107c0-17.673-14.327-32-32-32v0zM135.328 171.392h752.725v552.107h-752.725v-552.107zM511.701 316.32c-0.077 0-0.168 0-0.259 0-19.945 0-37.947 8.321-50.724 21.681l-380.441 395.301 46.112 44.373 380.427-395.275c1.214-1.282 2.928-2.080 4.829-2.080 0.020 0 0.040 0 0.059 0h-0.003c0.015 0 0.033 0 0.050 0 1.899 0 3.612 0.798 4.822 2.077l0.003 0.003 380.416 395.275 46.112-44.373-380.416-395.275c-12.801-13.386-30.803-21.707-50.749-21.707-0.084 0-0.167 0-0.251 0h0.013zM84.053 164.928l343.552 259.147 38.539-51.093-343.541-259.147zM557.259 372.992l38.539 51.093 343.531-259.147-38.549-51.093z" />
<glyph unicode="&#xe930;" glyph-name="gauge" d="M533.333 746.667c108.275 0 210.072-41.632 286.635-117.214 76.563-75.556 118.698-176.066 118.698-282.969 0-87.75-28.812-170.936-81.317-239.816v0l-57.938 57.151c37.694 53.232 58.2 116.338 58.2 182.666 0 85.507-33.723 165.91-94.979 226.386-61.23 60.45-142.652 93.756-229.298 93.756-86.594 0-168.068-33.306-229.298-93.756-61.23-60.476-94.953-140.879-94.953-226.386 0-66.328 20.48-129.433 58.147-182.691v0l-57.886-57.125c-52.531 68.854-81.344 152.067-81.344 239.816 0 106.903 42.161 207.413 118.724 282.969 76.537 75.582 178.334 117.214 286.609 117.214zM644.816 437.184c0 0-42.056-191.843-58.826-220.534s-53.968-38.513-83.041-21.937c-29.074 16.55-39.026 53.258-22.256 81.949 16.796 28.691 164.124 160.522 164.124 160.522zM290.146 386.659c22.386 0 40.515-17.916 40.515-40.008 0-22.066-18.129-40.008-40.515-40.008s-40.541 17.942-40.541 40.008c0 22.092 18.155 40.008 40.541 40.008zM776.559 386.666c22.36 0 40.515-17.916 40.515-40.008 0-22.066-18.155-40.008-40.515-40.008-22.413 0-40.541 17.942-40.541 40.008 0 22.092 18.129 40.008 40.541 40.008zM332.696 544.641c15.83 15.622 41.508 15.622 57.338 0 15.83-15.596 15.804-40.936 0-56.558-15.83-15.622-41.508-15.622-57.338 0-15.804 15.622-15.804 40.962 0 56.558zM676.667 544.652c15.83 15.622 41.482 15.622 57.311 0 15.804-15.596 15.83-40.936 0-56.558s-41.508-15.622-57.311 0c-15.83 15.622-15.83 40.936 0 56.558zM533.336 626.663c22.36 0 40.541-17.916 40.541-40.008s-18.181-39.982-40.541-39.982c-22.386 0-40.541 17.89-40.541 39.982s18.155 40.008 40.541 40.008z" />
<glyph unicode="&#xe931;" glyph-name="grid-2x2" d="M449.636 410.078c13.443 0 24.441-10.998 24.441-24.441v0-254.53c0-13.443-10.998-24.441-24.441-24.441v0h-254.529c-13.443 0-24.441 10.998-24.441 24.441v0 254.53c0 13.443 10.998 24.441 24.441 24.441v0zM828.892 410.078c13.443 0 24.441-10.998 24.441-24.441v0-254.53c0-13.443-10.998-24.441-24.441-24.441v0h-254.529c-13.443 0-24.441 10.998-24.441 24.441v0 254.53c0 13.443 10.998 24.441 24.441 24.441v0zM449.636 789.333c13.443 0 24.441-10.998 24.441-24.441v0-254.53c0-13.443-10.998-24.441-24.441-24.441v0h-254.529c-13.443 0-24.441 10.998-24.441 24.441v0 254.53c0 13.443 10.998 24.441 24.441 24.441v0zM828.892 789.333c13.443 0 24.441-10.998 24.441-24.441v0-254.53c0-13.443-10.998-24.441-24.441-24.441v0h-254.529c-13.443 0-24.441 10.998-24.441 24.441v0 254.53c0 13.443 10.998 24.441 24.441 24.441v0z" />
<glyph unicode="&#xe932;" glyph-name="grid-3x3" d="M303.406 258.372c10.412 0 18.966-8.53 18.966-18.966v0-113.773c0-10.436-8.554-18.966-18.966-18.966v0h-113.773c-10.436 0-18.966 8.53-18.966 18.966v0 113.773c0 10.436 8.53 18.966 18.966 18.966v0zM834.367 258.372c10.412 0 18.966-8.53 18.966-18.966v0-113.773c0-10.436-8.554-18.966-18.966-18.966v0h-113.773c-10.436 0-18.966 8.53-18.966 18.966v0 113.773c0 10.436 8.53 18.966 18.966 18.966v0zM568.882 258.372c10.436 0 18.966-8.53 18.966-18.966v0-113.773c0-10.436-8.53-18.966-18.966-18.966v0h-113.773c-10.412 0-18.966 8.53-18.966 18.966v0 113.773c0 10.436 8.554 18.966 18.966 18.966v0zM303.406 523.845c10.412 0 18.966-8.53 18.966-18.966v0-113.773c0-10.412-8.554-18.966-18.966-18.966v0h-113.773c-10.436 0-18.966 8.554-18.966 18.966v0 113.773c0 10.436 8.53 18.966 18.966 18.966v0zM834.367 523.845c10.412 0 18.966-8.53 18.966-18.966v0-113.773c0-10.412-8.554-18.966-18.966-18.966v0h-113.773c-10.436 0-18.966 8.554-18.966 18.966v0 113.773c0 10.436 8.53 18.966 18.966 18.966v0zM568.882 523.845c10.436 0 18.966-8.53 18.966-18.966v0-113.773c0-10.412-8.53-18.966-18.966-18.966v0h-113.773c-10.412 0-18.966 8.554-18.966 18.966v0 113.773c0 10.436 8.554 18.966 18.966 18.966v0zM303.406 789.331c10.412 0 18.966-8.53 18.966-18.966v0-113.773c0-10.436-8.554-18.966-18.966-18.966v0h-113.773c-10.436 0-18.966 8.53-18.966 18.966v0 113.773c0 10.436 8.53 18.966 18.966 18.966v0zM834.362 789.333c10.436 0 18.966-8.554 18.966-18.966v0-113.773c0-10.436-8.53-18.966-18.966-18.966v0h-113.773c-10.436 0-18.966 8.53-18.966 18.966v0 113.773c0 10.412 8.53 18.966 18.966 18.966v0zM568.882 789.331c10.436 0 18.966-8.53 18.966-18.966v0-113.773c0-10.436-8.53-18.966-18.966-18.966v0h-113.773c-10.412 0-18.966 8.53-18.966 18.966v0 113.773c0 10.436 8.554 18.966 18.966 18.966v0z" />
<glyph unicode="&#xe933;" glyph-name="headphones" d="M322.385 334.236c41.721 0 75.841-34.144 75.841-75.865v0-75.84c0-41.721-34.12-75.865-75.841-75.865v0h-18.966c-10.412 0-18.966 8.554-18.966 18.966v0 189.637c0 10.412 8.554 18.966 18.966 18.966v0zM720.596 334.236c10.436 0 18.966-8.554 18.966-18.966v-189.637c0-10.412-8.53-18.966-18.966-18.966h-18.966c-41.721 0-75.841 34.144-75.841 75.865v75.84c0 41.721 34.12 75.865 75.841 75.865h18.966zM512.012 789.333c188.197 0 341.321-153.122 341.321-341.317v0-322.376c0-10.436-8.53-18.966-18.966-18.966v0h-37.908c-10.436 0-18.966 8.53-18.966 18.966v0 322.376c0 146.377-119.102 265.453-265.48 265.453-146.403 0-265.48-119.076-265.48-265.453v0-322.376c0-10.436-8.53-18.966-18.966-18.966v0h-37.933c-10.412 0-18.966 8.53-18.966 18.966v0 322.376c0 188.195 153.124 341.317 341.346 341.317z" />
<glyph unicode="&#xe934;" glyph-name="heart" d="M797.792 428.715c74.055 72.708 74.055 190.721 0 263.454-74.007 72.684-194.133 72.66-268.139-0.048-6.526-6.376-12.269-13.257-17.622-20.306-5.377 7.074-11.145 13.931-17.671 20.355-74.007 72.684-194.133 72.66-268.139-0.048-74.080-72.757-74.055-190.697-0.024-263.382l284.466-279.405 287.13 279.381z" />
<glyph unicode="&#xe935;" glyph-name="history" d="M511.988 789.333c94.123 0 179.472-38.276 241.259-100.090 61.812-61.79 100.087-147.166 100.087-241.243 0-188.228-153.1-341.333-341.346-341.333-92.73 0-178.616 37.787-241.137 100.188v0l53.575 53.577c48.638-48.517 115.436-77.921 187.562-77.921 146.403 0 265.505 119.106 265.505 265.49 0 73.204-29.794 139.564-77.87 187.642-48.076 48.053-114.434 77.848-187.635 77.848-80.998 0-156.008-36.908-205.648-97.744v0l91.899-91.902h-227.572v227.556l81.731-81.71c63.816 74.695 158.086 119.644 259.59 119.644zM511.995 637.639v-151.712h75.865v-75.868h-151.706v227.58h75.841z" />
<glyph unicode="&#xe936;" glyph-name="home-narrow" d="M512 746.667l-298.667-298.667h74.655v-298.667h149.333v112.018c0 41.237 33.442 74.655 74.679 74.655s74.679-33.418 74.679-74.655v-112.018h149.309v298.667h74.679l-298.667 298.667z" />
<glyph unicode="&#xe937;" glyph-name="home-wide" d="M184.319 38.402v384l-73.728-56.32-49.152 65.536 122.88 94.208v126.976h81.92v-64.512l245.76 187.392 450.56-344.064-49.152-64.512-73.728 55.296v-384h-286.72v245.76h-81.92v-245.76h-286.72zM184.319 693.762c0 34.133 11.947 63.147 35.84 87.040s52.907 35.84 87.040 35.84c11.605 0 21.333 3.925 29.184 11.776s11.776 17.579 11.776 29.184h81.92c0-34.133-11.947-63.147-35.84-87.040s-52.907-35.84-87.040-35.84c-11.605 0-21.333-3.925-29.184-11.776s-11.776-17.579-11.776-29.184h-81.92z" />
<glyph unicode="&#xe938;" glyph-name="image" d="M838.389 746.667c31.775 0 57.611-25.117 57.611-56.009v0-485.315c0-30.892-25.836-56.009-57.611-56.009v0h-652.802c-31.75 0-57.586 25.117-57.586 56.009v0 485.315c0 30.892 25.836 56.009 57.586 56.009v0zM819.185 671.988h-614.395v-447.976l178.426 173.464c7.449 7.242 19.699 7.242 27.148 0v0l63.229-61.47 345.593 335.982zM350.919 586.656c33.593 0 60.812-26.834 60.812-59.984s-27.219-60.010-60.812-60.010c-33.593 0-60.812 26.86-60.812 60.010s27.219 59.984 60.812 59.984z" />
<glyph unicode="&#xe939;" glyph-name="instagram" d="M675.842 816.641h-327.68c-113.108 0-204.8-91.692-204.8-204.8v-327.679c0-113.107 91.692-204.8 204.8-204.8h327.68c113.107 0 204.8 91.693 204.8 204.8v327.679c0 113.108-91.693 204.8-204.8 204.8zM808.962 284.162c-0.225-73.425-59.695-132.895-133.12-133.12h-327.68c-73.427 0.225-132.895 59.695-133.12 133.12v327.679c0.225 73.427 59.693 132.895 133.12 133.12h327.68c73.425-0.225 132.895-59.693 133.12-133.12v-327.679zM706.562 601.601c-22.622 0-40.96 18.339-40.96 40.96s18.338 40.96 40.96 40.96c22.622 0 40.96-18.339 40.96-40.96s-18.338-40.96-40.96-40.96zM512.002 632.321c48.919 0.109 95.863-19.275 130.454-53.866s53.977-81.535 53.866-130.453c0-101.798-82.522-184.32-184.32-184.32s-184.32 82.522-184.32 184.32c0 101.794 82.523 184.319 184.32 184.319zM399.362 448.002c0-62.21 50.43-112.64 112.64-112.64s112.64 50.43 112.64 112.64c0 62.21-50.43 112.639-112.64 112.639s-112.64-50.429-112.64-112.639z" />
<glyph unicode="&#xe93a;" glyph-name="ah-handshake" d="M788.928 252.299c-0.042 0-0.092 0-0.142 0-24.71 0-46.784 11.285-61.348 28.983l-0.109 0.137-233.035 283.211-81.643-45.76c-43.52-24.32-97.419-26.976-142.976-7.115-50.272 21.664-73.568 80.384-51.84 130.848 5.875 13.456 14.132 24.858 24.337 34.159l0.079 0.071 1.344 1.216c0.693 0.64 1.419 1.237 2.165 1.813l141.696 107.84c35.334 26.943 80.078 43.204 128.616 43.307h0.024c26.005 0 51.52-4.693 75.829-13.973l223.573-85.312c5.963-2.24 12.405-3.413 19.029-3.413h37.28c50.795 0 92.299-41.28 92.523-92.011v-274.272c0-50.976-41.472-92.448-92.437-92.448h-33.408c-13.507-10.691-30.765-17.184-49.536-17.28h-0.022zM501.995 637.611c9.301 0 18.453-4.053 24.715-11.659l250.059-303.893c5.344-6.507 15.179-7.701 22.293-2.048l7.861 6.4c5.46 4.47 12.512 7.179 20.197 7.179 0.002 0 0.004 0 0.006 0h44.768c15.702 0.018 28.425 12.745 28.437 28.447v274.102c-0.075 15.467-12.864 28.16-28.523 28.16h-37.28c-14.357 0-28.395 2.56-41.728 7.573l-223.701 85.355c-47.147 18.005-102.699 10.037-142.923-20.491l-140.832-107.232c-7.177-6.541-11.663-15.928-11.663-26.363 0-14.543 8.714-27.051 21.206-32.587l0.227-0.090c11.444-5.070 24.792-8.022 38.83-8.022 17.417 0 33.772 4.544 47.945 12.511l-0.492-0.254 104.96 58.837c4.907 2.752 10.304 4.075 15.627 4.075zM476.992 100.811c-0.019 0-0.042 0-0.064 0-15.971 0-30.767 5.032-42.889 13.597l0.234-0.157c-1.98 1.389-3.709 2.909-5.259 4.596l-0.021 0.023c-9.536 10.411-10.965 26.027-4.267 38.005h-0.011l3.947 6.976c10.635 18.101 8.032 40.704-6.059 55.477-6.254 6.179-14.406 10.451-23.503 11.863l-0.241 0.031c-9.733 1.561-17.868 7.327-22.607 15.339l-0.081 0.149c-5.535 9.394-14.309 16.378-24.754 19.475l-0.302 0.077c-10.605 3.147-18.775 11.363-21.8 21.769l-0.056 0.226c-4.242 14.404-15.415 25.496-29.562 29.547l-0.304 0.075c-10.829 3.060-19.192 11.395-22.238 21.982l-0.056 0.226c-2.484 8.729-7.409 16.093-13.987 21.531l-0.072 0.058c-7.384 6.112-16.952 9.821-27.386 9.821-13.332 0-25.25-6.054-33.155-15.564l-0.057-0.070-29.227-35.755c-5.91-7.195-14.807-11.75-24.767-11.755h-42.134c-28.199 0.065-51.070 22.789-51.37 50.926v273.714c0.128 28.555 23.563 51.691 51.595 51.381h138.219c0.085 0.001 0.185 0.001 0.285 0.001 7.176 0 13.922-1.846 19.787-5.089l-0.211 0.107c13.139-7.209 21.897-20.948 21.897-36.734 0-7.236-1.84-14.042-5.078-19.975l0.109 0.218c-3.817-6.529-6.071-14.375-6.071-22.748 0-3.876 0.483-7.638 1.392-11.232l-0.068 0.315c3.949-9.718 11.722-17.185 21.401-20.636l0.252-0.078c26.901-10.048 56.021-7.808 80.512 5.92l101.504 56.832c16.32 9.365 37.152 5.493 49.259-9.291l238.144-289.536c11.599-13.155 18.679-30.536 18.679-49.57 0-27.222-14.481-51.062-36.159-64.237l-0.333-0.188c-11.014-6.514-24.273-10.363-38.43-10.363-4.77 0-9.437 0.437-13.965 1.273l0.47-0.072c-5.721-9.67-13.217-17.69-22.108-23.837l-0.25-0.163c-11.967-8.032-26.697-12.819-42.545-12.819-4.706 0-9.313 0.422-13.785 1.23l0.469-0.070c-5.614-9.569-12.958-17.522-21.673-23.66l-0.237-0.158c-12.067-8.136-26.934-12.987-42.934-12.987-4.692 0-9.287 0.417-13.749 1.217l0.47-0.070c-13.211-22.383-37.208-37.163-64.657-37.163-0.050 0-0.101 0-0.151 0h0.008zM547.989 197.771v-0.011zM547.968 197.813v0zM547.925 197.888v0zM543.691 207.061l2.571-2.507c4.405-4.395 10.901-5.045 15.744-1.835 1.682 1.26 2.931 3.017 3.534 5.051l0.018 0.069-4.053 5.013c-14.965 18.464-24.725 30.528-30.965 39.040l-0.501 0.576 0.053 0.053c-11.285 15.52-10.496 19.072-8.288 29.045 2.17 9.575 8.402 17.375 16.746 21.623l0.182 0.084c16.341 8.16 25.6 5.003 40.448-10.453l0.107 0.085 0.704-0.917c5.76-6.080 12.363-13.952 20.523-23.68 2.513-2.826 9.669-11.354 16.788-19.914l5.089-6.294 1.963-1.92c4.373-4.352 10.869-5.003 15.691-1.813 2.174 1.585 3.696 3.952 4.152 6.681l0.008 0.061c-23.805 29.335-36.861 45.081-49.979 60.774l10.075-12.39-0.533 0.629c-4.72 5.54-7.591 12.781-7.591 20.693 0 17.673 14.327 32 32 32 2.927 0 5.762-0.393 8.455-1.129l-0.224 0.052c6.037-1.611 8.459-2.251 15.968-10.453l0.235 0.203 51.392-60.672c3.787-3.211 9.248-3.733 13.589-1.205 4.853 2.901 6.56 9.685 3.445 14.901-0.395 0.656-0.818 1.225-1.289 1.749l0.009-0.010c-0.256 0.278-0.524 0.584-0.786 0.895l-0.036 0.043-26.272 31.701-199.147 242.347-83.275-46.624c-22.405-12.809-49.243-20.361-77.844-20.361-20.021 0-39.178 3.701-56.824 10.456l1.089-0.366c-27.861 9.76-50.112 31.744-60.416 60.096-0.208 0.521-0.459 1.266-0.681 2.024l-0.055 0.216c-4.576 16.213-5.227 33.291-2.155 49.696h-94.421v-248.021h14.315l19.712 24.128c37.675 45.653 105.28 52.117 150.805 14.549 12.169-10.067 21.95-22.565 28.674-36.792l0.276-0.648c23.005-10.875 41.136-28.923 51.837-51.213l0.28-0.648c15.322-7.321 28.133-17.647 38.123-30.304l0.171-0.224c17.836-5.438 33.091-14.849 45.333-27.242l0.011-0.011c14.318-14.981 24.494-34.033 28.623-55.247l0.113-0.699c2.357 2.272 5.099 4.224 8.181 5.749 4.247 2.13 9.253 3.377 14.551 3.377 9.314 0 17.729-3.855 23.734-10.057l0.008-0.009zM512 575.573h0.011zM480.256 581.376v0zM106.507 620.373h-0.107c0.016 0.004 0.034 0.006 0.053 0.006s0.037-0.002 0.055-0.006h-0.002zM244.64 620.373v0zM385.952 64.331c-24.448 0-48.523 8.309-67.776 23.381l-1.813 1.429c-2.728 2.146-5.14 4.23-7.454 6.416l0.051-0.048c-18.57 3.413-34.949 11.020-48.71 21.814l0.241-0.182-1.813 1.387c-7.603 5.967-14.219 12.658-19.922 20.087l-0.195 0.265c-13.829 4.236-25.84 10.641-36.304 18.917l0.23-0.175-3.627 2.88c-7.98 6.298-14.877 13.452-20.714 21.432l-0.214 0.307c-13.42 4.249-25.066 10.517-35.25 18.555l0.232-0.176-6.101 4.779c-21.791 17.813-36.429 43.665-39.366 72.966l-0.037 0.452c-0.372 3.37-0.583 7.277-0.583 11.235 0 26.203 9.293 50.236 24.763 68.982l-0.148-0.184 28.448 34.933c20.395 26.069 51.957 41.312 86.208 41.312 18.837 0 37.504-4.875 53.973-14.080l1.195-0.693c19.114-11.337 34.144-27.797 43.431-47.497l0.281-0.663c23.13-10.965 41.345-29.156 52.060-51.612l0.281-0.654c14.357-7.040 27.029-17.184 37.099-29.696 16.166-5.032 30.094-13.158 41.73-23.758l-0.087 0.078 1.056-0.971c38.037-36.352 45.717-92.8 19.029-137.589l-4.619-8.139c-2.699-4.693-5.696-9.152-8.939-13.301-20.204-25.777-51.341-42.187-86.311-42.187-0.114 0-0.227 0-0.341 0.001h0.018zM236.085 371.093c-14.421 0-27.605-6.293-36.192-17.248l-28.843-35.435c-6.352-7.683-10.205-17.635-10.205-28.487 0-1.639 0.088-3.258 0.259-4.852l-0.017 0.198c1.193-12.248 7.192-22.901 16.061-30.189l0.077-0.062 5.056-3.947c6.155-4.832 13.333-7.968 20.939-9.205 10.119-1.686 18.501-7.921 23.095-16.49l0.084-0.171c2.955-5.611 7.019-10.464 12.085-14.453l3.627-2.88c5.847-4.606 12.985-7.836 20.785-9.086l0.26-0.034c9.885-1.592 18.126-7.522 22.829-15.737l0.083-0.157c3.008-5.333 6.976-9.952 11.787-13.728l1.813-1.387c7.182-5.696 16.227-9.333 26.096-9.893l0.123-0.006c9.301-0.489 17.489-4.88 23.019-11.552l0.043-0.053c2.059-2.496 4.416-4.779 6.976-6.784l1.813-1.429c7.705-6.034 17.532-9.681 28.21-9.696h0.003c0.049 0 0.107 0 0.165 0 16.987 0 31.812 9.256 39.707 22.999l0.118 0.223 4.907 8.619c11.637 19.552 8.384 43.499-7.605 58.773l-0.448 0.416c-6.177 5.564-13.953 9.469-22.557 10.948l-0.269 0.038c-9.356 1.617-17.185 7.105-21.905 14.722l-0.079 0.137c-5.721 9.288-14.435 16.26-24.776 19.632l-0.322 0.091c-10.078 3.253-17.838 11.090-20.921 20.989l-0.061 0.227c-0.563 1.856-1.114 3.349-1.737 4.804l0.115-0.303c-4.684 11.15-13.395 19.833-24.268 24.37l-0.297 0.11c-1.2 0.521-2.741 1.076-4.317 1.549l-0.323 0.083c-10.518 3.167-18.621 11.319-21.66 21.64l-0.057 0.226c-3.263 11.305-10.538 20.555-20.148 26.308l-0.204 0.113c-6.591 3.788-14.488 6.030-22.907 6.048h-0.005z" />
<glyph unicode="&#xe93b;" glyph-name="link-away" d="M853.333 481.187l-303.413 265.48v-155.275c-379.254-91.092-379.254-527.392-379.254-527.392s132.007 306.688 379.254 306.688v-154.982l303.413 265.48z" />
<glyph unicode="&#xe93c;" glyph-name="link" d="M389.64 513.228l57.487-57.507-186.812-186.936 114.947-115.039 186.786 186.936 57.487-57.507-201.164-201.326c-11.497-11.507-26.792-17.85-43.109-17.85-16.29 0-31.611 6.343-43.109 17.85v0l-143.678 143.793c-11.497 11.507-17.809 26.84-17.809 43.143s6.312 31.637 17.809 43.143v0l201.164 201.299zM626.517 577.733l57.461-57.507-243.854-244.049-57.461 57.533 243.854 244.023zM648.27 772.073c22.995 23.013 63.222 23.013 86.217 0v0l143.678-143.793c11.497-11.507 17.835-26.814 17.835-43.143s-6.338-31.637-17.835-43.143v0l-201.19-201.299-57.434 57.507 186.786 186.936-114.947 115.039-186.786-186.962-57.461 57.533z" />
<glyph unicode="&#xe93d;" glyph-name="linkedin" d="M204.802 816.641h614.4c33.931 0 61.44-27.508 61.44-61.44v-614.399c0-33.931-27.509-61.44-61.44-61.44h-614.4c-33.932 0-61.44 27.509-61.44 61.44v614.399c0 33.932 27.508 61.44 61.44 61.44zM369.492 652.69c0.231 34.329-25.92 60.768-61.977 61.574-35.539 0.807-62.899-27.014-63.072-61.632-0.173-36.806 28.397-62.899 61.171-63.072 34.791-0.173 64.109 23.962 63.878 63.13zM523.459 539.679h-103.277v-350.609h109.093v8.18c0 15.561-0.012 31.126-0.025 46.694-0.033 41.525-0.070 83.096 0.143 124.609 0.057 10.080 0.516 20.562 3.109 30.183 9.732 35.942 42.050 59.154 78.107 53.449 23.155-3.625 38.474-17.048 44.925-38.879 3.977-13.648 5.763-28.336 5.935-42.566 0.467-42.91 0.401-85.819 0.336-128.733-0.025-15.147-0.049-30.302-0.049-45.449v-7.43h109.441v8.409c0 18.514-0.008 37.024-0.020 55.534-0.020 46.264-0.045 92.529 0.078 138.809 0.057 20.91-2.187 41.529-7.315 61.747-7.66 30.069-23.499 54.952-49.246 72.921-18.26 12.788-38.306 21.025-60.711 21.946-2.552 0.106-5.124 0.242-7.709 0.385-11.457 0.618-23.101 1.245-34.054-0.963-31.334-6.279-58.864-20.619-79.659-45.904-2.417-2.9-4.78-5.845-8.307-10.24l-0.795-0.995v48.902zM253.202 188.955h108.576v350.495h-108.576v-350.495z" />
<glyph unicode="&#xe93e;" glyph-name="lock" d="M399.989 524.8v115.194c0 63.524 50.237 115.194 111.998 115.194s112.023-51.67 112.023-115.194v-115.194h-224.021zM511.988 275.209c-30.917 0-55.987 25.786-55.987 57.585 0 31.824 25.070 57.609 55.987 57.609 30.941 0 56.011-25.786 56.011-57.609 0-31.799-25.070-57.585-56.011-57.585v0zM791.996 524.8h-93.328v115.194c0 105.864-83.752 192.006-186.68 192.006s-186.68-86.142-186.68-192.006v-115.194h-93.304c-10.274 0-18.67-8.661-18.67-19.203v-134.397c0-169.66 133.7-307.2 298.655-307.2s298.679 137.54 298.679 307.2v134.397c0 10.542-8.397 19.203-18.67 19.203v0z" />
<glyph unicode="&#xe93f;" glyph-name="microphone-mute" d="M226.094 779.602l627.239-648.53-55.428-57.338-121.896 126.039c-35.874-27.82-78.443-46.68-124.801-53.602v0-43.78l78.392-81.056h-235.202l78.392 81.056v43.78c-132.759 19.774-235.202 137.846-235.202 280.498v0h78.417c0-111.75 87.917-202.68 195.993-202.68 39.891 0 76.952 12.486 107.925 33.75v0l-57.424 59.375c-15.335-7.628-32.413-12.042-50.501-12.042-64.674 0-117.601 54.726-117.601 121.598v0 64.286l-223.732 231.31 55.428 57.338zM786.416 426.671c0-41.194-8.716-80.247-24.051-115.59v0l-61.213 63.294c4.32 16.718 6.846 34.194 6.846 52.296v0zM512.003 832c64.674 0 117.601-54.699 117.601-121.598v0-262.030l-235.202 243.196v18.834c0 66.898 52.927 121.598 117.601 121.598z" />
<glyph unicode="&#xe940;" glyph-name="microphone-on" d="M298.655 448.004c0-117.632 95.715-213.349 213.345-213.349s213.345 95.717 213.345 213.349v0h85.322c0-150.161-111.498-274.447-255.992-295.263v0-46.085l85.322-85.323h-255.992l85.322 85.323v46.085c-144.466 20.815-255.992 145.102-255.992 295.263v0zM512.005 874.667c70.391 0 127.996-57.579 127.996-127.998v0-298.672c0-70.392-57.605-127.998-127.996-127.998s-127.996 57.606-127.996 127.998v0 298.672c0 70.42 57.605 127.998 127.996 127.998z" />
<glyph unicode="&#xe941;" glyph-name="more-horizontal" d="M341.333 448c0-46.928-38.384-85.333-85.347-85.333-46.935 0-85.32 38.405-85.32 85.333s38.384 85.333 85.32 85.333c46.963 0 85.347-38.405 85.347-85.333zM597.333 448c0-46.928-38.384-85.333-85.347-85.333-46.935 0-85.32 38.405-85.32 85.333s38.384 85.333 85.32 85.333c46.963 0 85.347-38.405 85.347-85.333zM853.333 448c0-46.928-38.384-85.333-85.347-85.333-46.935 0-85.32 38.405-85.32 85.333s38.384 85.333 85.32 85.333c46.963 0 85.347-38.405 85.347-85.333z" />
<glyph unicode="&#xe942;" glyph-name="more-vertical" d="M512 277.333c46.928 0 85.333-38.384 85.333-85.347 0-46.935-38.405-85.32-85.333-85.32s-85.333 38.384-85.333 85.32c0 46.963 38.405 85.347 85.333 85.347zM512 533.333c46.928 0 85.333-38.384 85.333-85.347 0-46.935-38.405-85.32-85.333-85.32s-85.333 38.384-85.333 85.32c0 46.963 38.405 85.347 85.333 85.347zM512 789.333c46.928 0 85.333-38.384 85.333-85.347 0-46.935-38.405-85.32-85.333-85.32s-85.333 38.384-85.333 85.32c0 46.963 38.405 85.347 85.333 85.347z" />
<glyph unicode="&#xe943;" glyph-name="ah-hardhat" d="M887.445 205.323h-64v147.52c0 171.733-139.712 311.435-311.445 311.435s-311.445-139.712-311.445-311.445v-147.52h-64v147.52c0 207.019 168.427 375.445 375.445 375.445s375.445-168.427 375.445-375.445v-147.52zM872.853 21.035h-721.707c-41.173 0-74.667 33.493-74.667 74.667v66.955c0 41.173 33.493 74.667 74.667 74.667h721.707c41.173 0 74.667-33.493 74.667-74.667v-66.955c0-41.173-33.493-74.667-74.667-74.667zM151.147 173.323c-5.877 0-10.667-4.8-10.667-10.667v-66.955c0-5.888 4.789-10.667 10.667-10.667h721.707c5.867 0 10.667 4.779 10.667 10.667v66.955c0 5.867-4.8 10.667-10.667 10.667h-721.707zM483.264 842.965h64v-303.093h-64zM512 329.728c-66.763 0-121.077 54.304-121.077 121.067s54.315 121.077 121.077 121.077 121.067-54.315 121.067-121.067-54.293-121.088-121.067-121.088zM512 507.872c-31.467 0-57.077-25.6-57.077-57.067s25.6-57.077 57.077-57.077c31.467 0 57.067 25.6 57.067 57.067s-25.6 57.077-57.067 57.077zM315.861 758.304h64v-217.504h-64zM649.952 758.304h64v-217.504h-64z" />
<glyph unicode="&#xe944;" glyph-name="pause" d="M392.889 746.667c10.737 0 19.559-8.421 19.559-18.67v-559.994c0-10.249-8.822-18.67-19.559-18.67h-117.33c-10.763 0-19.559 8.421-19.559 18.67v559.994c0 10.249 8.797 18.67 19.559 18.67h117.33zM748.441 746.667c10.763 0 19.559-8.421 19.559-18.67v-559.994c0-10.249-8.797-18.67-19.559-18.67h-117.33c-10.737 0-19.559 8.421-19.559 18.67v559.994c0 10.249 8.822 18.67 19.559 18.67h117.33z" />
<glyph unicode="&#xe945;" glyph-name="ah-headset" d="M827.509 450.581h-64v100.437c0 138.688-112.821 251.509-251.509 251.509s-251.509-112.821-251.509-251.509v-100.437h-64v100.437c0 173.973 141.547 315.509 315.52 315.509s315.499-141.547 315.499-315.509v-100.437zM289.515 172.341h-122.048c-41.173 0-74.667 33.493-74.667 74.667v160.907c0 41.173 33.493 74.667 74.667 74.667h122.027c41.173 0 74.667-33.493 74.667-74.667v-160.907c0-41.173-33.493-74.667-74.667-74.667zM167.467 418.581c-5.888 0-10.667-4.789-10.667-10.667v-160.907c0-5.877 4.779-10.667 10.667-10.667h122.027c5.888 0 10.667 4.789 10.667 10.667v160.907c0 5.877-4.779 10.667-10.667 10.667h-122.027zM856.523 172.341h-122.027c-41.173 0-74.667 33.493-74.667 74.667v160.907c0 41.173 33.493 74.667 74.667 74.667h122.027c41.173 0 74.667-33.493 74.667-74.667v-160.907c0-41.173-33.493-74.667-74.667-74.667zM734.496 418.581c-5.888 0-10.667-4.789-10.667-10.667v-160.907c0-5.877 4.779-10.667 10.667-10.667h122.027c5.877 0 10.667 4.789 10.667 10.667v160.907c0 5.877-4.789 10.667-10.667 10.667h-122.027zM752.843 29.472h-276.299v64h276.309c5.877 0 10.667 4.789 10.667 10.667v100.203h64v-100.203c0-41.173-33.493-74.667-74.667-74.667z" />
<glyph unicode="&#xe946;" glyph-name="phone" d="M809.364 334.85c-4.228 1.002-8.603 1.638-13.125 1.638-0.196 0-0.367-0.049-0.587-0.049-64.598 8.114-125.017 29.672-178.323 61.885l-82.636-84.469c-61.079 41.183-114.018 96.225-155.202 153.1v0l82.758 84.493c-32.238 53.306-53.722 114.678-61.861 179.276 0 0.22 0.098 0.855 0.098 1.051 0 4.522-0.66 9.141-1.662 13.369-5.939 25.15-28.401 44.19-55.408 44.19h-115.68c-31.040 0-56.215-24.832-56.948-55.726 0-0.44-0.122-0.904-0.122-1.369 0-3.324 0.415-6.526 0.953-9.679 11.927-124.381 56.875-238.595 125.823-334.209 43.016-59.612 95.394-111.941 155.006-154.908 95.712-68.997 209.95-113.847 333.964-125.799 3.202-0.562 6.477-0.978 9.825-0.978 0.464 0 0.929 0.122 1.418 0.147 30.869 0.758 55.677 25.883 55.677 56.924v115.68c0 26.983-18.795 49.493-43.97 55.433z" />
<glyph unicode="&#xe947;" glyph-name="pin" d="M511.993 448.013c23.467 0 43.556 8.356 60.267 25.067s25.067 36.8 25.067 60.267c0 23.467-8.356 43.556-25.067 60.267s-36.8 25.067-60.267 25.067c-23.467 0-43.556-8.356-60.267-25.067s-25.067-36.8-25.067-60.267c0-23.467 8.356-43.556 25.067-60.267s36.8-25.067 60.267-25.067zM511.993 21.346c-114.489 97.422-200 187.911-256.533 271.467s-84.8 160.889-84.8 232c0 106.667 34.311 191.644 102.933 254.933s148.089 94.933 238.4 94.933c90.311 0 169.778-31.644 238.4-94.933s102.933-148.267 102.933-254.933c0-71.111-28.267-148.444-84.8-232s-142.044-174.044-256.533-271.467z" />
<glyph unicode="&#xe948;" glyph-name="pinterest" d="M536.235 789.333c-186.325 0-280.235-133.547-280.235-244.949 0-67.456 25.472-127.445 80.256-149.803 8.96-3.669 17.067-0.128 19.627 9.813 1.835 6.869 6.101 24.235 8.021 31.488 2.603 9.813 1.621 13.269-5.632 21.845-15.787 18.645-25.856 42.709-25.856 76.885 0 99.115 74.112 187.819 193.024 187.819 105.301 0 163.157-64.341 163.157-150.272 0-113.067-50.048-208.512-124.331-208.512-41.045 0-71.68 33.963-61.867 75.563 11.776 49.664 34.603 103.253 34.603 139.136 0 32.085-17.195 58.88-52.864 58.88-41.941 0-75.648-43.392-75.648-101.504 0-37.035 12.544-62.037 12.544-62.037s-42.923-181.845-50.475-213.675c-14.976-63.445-2.261-141.184-1.152-149.035 0.597-4.651 6.613-5.76 9.344-2.219 3.797 5.035 53.76 66.688 70.784 128.299 4.779 17.451 27.563 107.819 27.563 107.819 13.653-26.027 53.461-48.896 95.787-48.896 126.037 0 211.584 114.901 211.584 268.715 0 116.309-98.517 224.64-248.235 224.64z" />
<glyph unicode="&#xe949;" glyph-name="play" d="M762.713 460.983l-1.959 1.411-394.167 282.862c-2.148 0.909-4.461 1.411-6.939 1.411-10.101 0-18.315-8.297-18.315-18.555v-560.224c0-10.258 8.213-18.555 18.315-18.555 2.478 0 4.791 0.526 6.939 1.411l396.126 284.273c3.233 3.347 5.287 7.914 5.287 12.983s-2.053 9.636-5.287 12.983z" />
<glyph unicode="&#xe94a;" glyph-name="plus" d="M853.333 485.92h-303.413v303.413h-75.841v-303.413h-303.413v-75.865h303.413v-303.388h75.841v303.388h303.413z" />
<glyph unicode="&#xe94b;" glyph-name="printer" d="M701.627 258.373v-151.706h-379.254v151.706h379.254zM682.661 789.333c10.436 0 18.966-8.53 18.966-18.966v0-208.581h132.74c10.436 0 18.966-8.53 18.966-18.966v0-341.321c0-10.436-8.53-18.966-18.966-18.966v0h-94.807v94.807c0 10.412-8.554 18.942-18.966 18.942v0h-417.187c-10.412 0-18.966-8.53-18.966-18.942v0-94.807h-94.807c-10.436 0-18.966 8.53-18.966 18.966v0 341.321c0 10.436 8.53 18.966 18.966 18.966v0h132.74v208.581c0 10.436 8.53 18.966 18.966 18.966v0zM777.468 485.945h-75.865v-37.933h75.865v37.933zM663.694 751.401h-303.413v-189.615h303.413v189.615z" />
<glyph unicode="&#xe94c;" glyph-name="refresh" d="M398.215 329.48l-91.875-91.899c49.665-60.81 124.626-97.74 205.649-97.74 73.202 0 139.56 29.794 187.636 77.87 30.772 30.747 53.893 69.046 66.676 111.77v0h78.237c-14.518-63.669-46.634-120.739-91.288-165.393-61.788-61.836-147.136-100.087-241.26-100.087-101.505 0-195.775 44.972-259.615 119.615v0l-81.707-81.682v227.547h227.548zM511.987 746.667c101.529 0 195.799-44.972 259.64-119.64v0l81.707 81.707v-227.547h-227.548l91.875 91.899c-49.665 60.81-124.626 97.74-205.673 97.74-73.177 0-139.535-29.794-187.611-77.87-31.040-31.016-54.284-68.655-66.969-111.77v0h-78.017c14.469 63.865 46.634 120.666 91.361 165.393 61.788 61.812 147.136 100.087 241.235 100.087z" />
<glyph unicode="&#xe94d;" glyph-name="repeat" d="M853.333 490.657c0-164.677-119.103-298.668-265.482-298.668v0h-189.616v-85.322l-113.775 127.997 113.775 127.997v-85.322h189.616c104.56 0 189.64 95.688 189.64 213.319v0zM625.789 789.333l113.775-127.997-113.775-128.024v85.349h-189.64c-104.56 0-189.616-95.688-189.616-213.319v0h-75.866c0 164.677 119.103 298.668 265.482 298.668v0h189.64v85.322z" />
<glyph unicode="&#xe94e;" glyph-name="return" d="M646.401 661.335h-364.796v127.998l-153.605-170.646 153.605-170.674v127.998h364.796c95.301 0 172.809-86.12 172.809-192.011s-77.508-192.011-172.809-192.011h-364.796v-85.323h364.796c137.643 0 249.599 124.424 249.599 277.334 0 152.938-111.956 277.334-249.599 277.334z" />
<glyph unicode="&#xe94f;" glyph-name="ah-heart" d="M511.765 68.096c-0.010 0-0.021 0-0.033 0-8.826 0-16.814 3.584-22.59 9.375l-383.681 383.681c-40.469 40.555-62.731 94.347-62.731 151.499 0 24.032 3.957 47.648 11.776 70.176 11.148 31.833 28.571 59.012 50.932 81.226l0.012 0.011c40.448 40.448 94.219 62.72 151.413 62.72s110.965-22.272 151.413-62.72l103.488-103.488 103.488 103.488c38.636 38.747 92.070 62.72 151.103 62.72 0.135 0 0.27 0 0.406 0h-0.021c85.451 0 161.28-49.845 197.867-130.080 0.427-0.939 0.811-1.888 1.141-2.859l2.005-5.803c0.013-0.021 0.024-0.046 0.031-0.073l0.001-0.002c28.171-81.056 9.163-167.936-49.632-226.731l-383.765-383.765c-5.775-5.792-13.762-9.376-22.587-9.376-0.013 0-0.026 0-0.039 0h0.002zM256.853 762.784c-40.107 0-77.803-15.616-106.165-43.979-15.675-15.563-27.884-34.594-35.382-55.848l-0.319-1.037c-5.239-14.633-8.267-31.515-8.267-49.104 0-0.062 0-0.123 0-0.185v0.010c0-40.075 15.627-77.813 44-106.251l361.035-361.035 361.131 361.131c41.291 41.301 54.485 102.784 34.443 160.469l-1.568 4.512c-26.272 56.363-79.424 91.307-139.029 91.307-22.944 0-45.035-5.045-65.653-14.997-14.997-7.307-28.693-17.067-40.587-28.971l-126.101-126.101c-5.791-5.789-13.789-9.369-22.624-9.369s-16.833 3.58-22.624 9.369l-126.112 126.091c-27.020 27.166-64.426 43.979-105.759 43.979-0.143 0-0.286 0-0.428-0.001h0.022z" />
<glyph unicode="&#xe950;" glyph-name="rotate-clockwise" d="M853.333 481.187h-227.547l91.874 91.899c-49.664 60.834-124.626 97.74-205.648 97.74-73.177 0-139.559-29.769-187.635-77.87-48.076-48.076-77.845-114.434-77.845-187.611 0-146.403 119.102-265.48 265.48-265.48 72.15 0 138.948 29.403 187.537 77.894l53.6-53.575c-62.521-62.349-148.407-100.184-241.137-100.184-188.246 0-341.346 153.124-341.346 341.346 0 94.099 38.299 179.447 100.087 241.234 61.812 61.812 147.136 100.087 241.259 100.087 101.504 0 195.774-44.972 259.614-119.64l81.707 81.731v-227.572z" />
<glyph unicode="&#xe951;" glyph-name="rotate-counter-clockwise" d="M170.667 523.853h227.547l-91.874 91.899c49.664 60.834 124.626 97.74 205.648 97.74 73.177 0 139.559-29.769 187.635-77.87 48.076-48.076 77.845-114.434 77.845-187.611 0-146.403-119.102-265.48-265.48-265.48-72.15 0-138.948 29.403-187.537 77.894l-53.6-53.575c62.521-62.349 148.407-100.184 241.137-100.184 188.246 0 341.346 153.124 341.346 341.346 0 94.099-38.299 179.447-100.087 241.234-61.812 61.812-147.136 100.087-241.259 100.087-101.504 0-195.774-44.972-259.614-119.64l-81.707 81.731v-227.572z" />
<glyph unicode="&#xe952;" glyph-name="ah-home" d="M860.491 9.803h-256.533c-17.673 0-32 14.327-32 32v0 215.84c0 5.888-4.779 10.667-10.667 10.667h-99.2c-5.877 0-10.667-4.779-10.667-10.667v-215.829c0-17.673-14.327-32-32-32v0h-256.544c-17.673 0-32 14.327-32 32v0 522.667c0 9.536 4.256 18.571 11.595 24.651l348.8 288.597c5.494 4.574 12.626 7.35 20.405 7.35s14.911-2.776 20.457-7.392l-0.052 0.042 348.8-288.597c7.104-5.913 11.593-14.757 11.595-24.65v0-522.688c0-17.673-14.327-32-32-32v0zM635.957 73.803h192.533v475.627l-316.8 262.123-316.8-262.123v-475.627h192.533v183.84c0 41.173 33.493 74.667 74.667 74.667h99.2c41.173 0 74.667-33.493 74.667-74.667v-183.829z" />
<glyph unicode="&#xe953;" glyph-name="search" d="M836.265 64.007l-268.8 268.8c-21.331-17.065-45.865-30.579-73.597-40.533-27.736-9.958-57.245-14.933-88.534-14.933-77.512 0-143.112 26.843-196.801 80.532s-80.533 119.289-80.533 196.799c0 77.512 26.844 143.112 80.533 196.801s119.289 80.533 196.801 80.533c77.51 0 143.109-26.844 196.799-80.533s80.532-119.289 80.532-196.801c0-31.288-4.975-60.797-14.933-88.534-9.954-27.733-23.467-52.266-40.533-73.597l268.8-268.8-59.735-59.735zM405.335 362.672c53.333 0 98.664 18.669 135.998 56.002s56.002 82.665 56.002 135.998c0 53.335-18.669 98.668-56.002 136.001s-82.665 56-135.998 56c-53.335 0-98.668-18.666-136.001-56s-56-82.667-56-136.001c0-53.333 18.666-98.664 56-135.998s82.667-56.002 136.001-56.002z" />
<glyph unicode="&#xe954;" glyph-name="send" d="M896 448l-768 341.333 57.609-255.986 383.988-85.347-383.988-85.347-57.609-255.986z" />
<glyph unicode="&#xe955;" glyph-name="share" d="M698.668 163.541c-30.917 0-56.011 25.468-56.011 56.899 0 31.407 25.094 56.875 56.011 56.875s56.011-25.468 56.011-56.875c0-31.431-25.094-56.899-56.011-56.899zM325.332 391.113c-30.941 0-56.011 25.468-56.011 56.875s25.070 56.899 56.011 56.899c30.917 0 56.011-25.492 56.011-56.899s-25.094-56.875-56.011-56.875zM698.668 732.434c30.917 0 56.011-25.492 56.011-56.899s-25.094-56.875-56.011-56.875c-30.917 0-56.011 25.468-56.011 56.875s25.094 56.899 56.011 56.899zM698.668 334.214c-27.091 0-51.969-9.801-71.337-26.079l-192.238 117.171c1.468 7.332 2.238 14.934 2.238 22.681 0 7.772-0.77 15.349-2.238 22.681l192.238 117.171c19.368-16.278 44.246-26.079 71.337-26.079 61.858 0 111.998 50.935 111.998 113.774s-50.141 113.798-111.998 113.798c-61.858 0-111.998-50.96-111.998-113.798 0-7.748 0.77-15.349 2.238-22.681l-192.238-117.147c-19.368 16.278-44.246 26.054-71.337 26.054-61.858 0-111.998-50.935-111.998-113.774s50.141-113.774 111.998-113.774c27.091 0 51.969 9.801 71.337 26.079l192.238-117.171c-1.468-7.332-2.238-14.934-2.238-22.681 0-62.838 50.141-113.774 111.998-113.774s111.998 50.935 111.998 113.774c0 62.814-50.141 113.774-111.998 113.774z" />
<glyph unicode="&#xe956;" glyph-name="ah-issues" d="M314.56 39.445c-17.673 0-32 14.327-32 32v0 148.16h-110.635c-39.568 0.049-71.631 32.112-71.68 71.675v493.594c0.049 39.568 32.112 71.631 71.675 71.68h680.154c39.568-0.049 71.631-32.112 71.68-71.675v-493.594c-0.049-39.568-32.112-71.631-71.675-71.68h-344.101l-170.795-170.773c-5.786-5.798-13.786-9.385-22.624-9.387v0zM171.925 792.555c-4.242 0-7.68-3.438-7.68-7.68v0-493.589c0-4.235 3.445-7.68 7.68-7.68h142.635c17.673 0 32-14.327 32-32v0-102.901l125.547 125.536c5.785 5.786 13.778 9.365 22.607 9.365 0.002 0 0.005 0 0.007 0h357.354c4.242 0 7.68 3.438 7.68 7.68v0 493.589c0 4.242-3.438 7.68-7.68 7.68v0h-680.149zM552.213 387.755c0-22.38-18.143-40.523-40.523-40.523s-40.523 18.143-40.523 40.523c0 22.38 18.143 40.523 40.523 40.523s40.523-18.143 40.523-40.523zM479.691 719.040h64v-252.384h-64z" />
<glyph unicode="&#xe957;" glyph-name="shuffle" d="M562.724 396.614l34.56-52.329c15.74-23.891 56.435-45.616 85.374-45.616v0h56.9v74.68l113.775-112.020-113.775-111.996v74.656h-56.9c-54.993 0-119.055 34.236-148.971 79.612v0l-16.205 24.516 45.241 68.497zM739.568 746.667l113.751-111.996-113.751-112.020v74.68h-56.9c-28.939 0-69.634-21.725-85.399-45.616v0l-163.832-248.123c-29.965-45.376-94.002-79.588-148.996-79.588v0h-113.775v74.656h113.775c28.939 0 69.634 21.75 85.399 45.616v0l163.832 248.123c29.941 45.376 94.002 79.612 148.996 79.612v0h56.9v74.656zM284.447 671.999c54.945 0 119.030-34.212 148.996-79.588v0l16.18-24.54-45.217-68.497-34.56 52.353c-15.789 23.867-56.484 45.616-85.399 45.616v0h-113.775v74.656z" />
<glyph unicode="&#xe958;" glyph-name="ah-key" d="M702.165 630.581c0-28.778-23.329-52.107-52.107-52.107s-52.107 23.329-52.107 52.107c0 28.778 23.329 52.107 52.107 52.107s52.107-23.329 52.107-52.107zM290.56 26.133c-0.041 0-0.090 0-0.139 0-20.569 0-39.19 8.345-52.66 21.834l-24.342 24.321c-34.741-24.928-83.573-21.813-114.773 9.408-34.709 34.688-34.709 91.147-0.011 125.856l304.16 304.149c-22.624 47.051-31.168 99.2-24.768 152.277 15.189 125.685 117.728 226.080 243.819 238.72 82.592 8.341 163.477-20.395 221.867-78.709 58.411-58.315 87.221-139.147 79.040-221.76-12.597-127.435-114.080-230.261-241.28-244.501-53.835-6.016-106.528 3.317-153.867 27.093l-123.488-123.509 23.499-23.509c13.508-13.437 21.867-32.038 21.867-52.591 0-0.070 0-0.139 0-0.209v0.011c0-19.947-7.765-38.699-21.867-52.8l-84.267-84.267c-13.47-13.49-32.089-21.835-52.657-21.835-0.050 0-0.101 0-0.151 0h0.008zM214.251 148.715c8.192 0 16.384-3.125 22.624-9.365l46.133-46.133c4.16-4.16 10.912-4.16 15.083 0l84.267 84.267c1.937 1.927 3.136 4.594 3.136 7.541s-1.199 5.615-3.136 7.541v0l-46.123 46.133c-5.789 5.791-9.369 13.789-9.369 22.624s3.58 16.833 9.369 22.624l163.243 163.243c5.789 5.796 13.789 9.382 22.628 9.382 6.279 0 12.136-1.81 17.077-4.936l-0.131 0.078c40.469-25.248 87.253-35.776 135.296-30.379 97.387 10.901 175.072 89.621 184.725 187.2 6.272 63.445-15.808 125.461-60.565 170.165s-106.859 66.667-170.283 60.331c-96.533-9.685-175.040-86.539-186.656-182.72-5.717-47.371 4.011-93.696 28.117-133.973 7.541-12.587 5.547-28.693-4.821-39.072l-320.971-320.96c-4.517-4.528-7.31-10.778-7.31-17.68s2.793-13.152 7.311-17.681l-0.001 0.001c9.739-9.739 25.6-9.749 35.339 0l12.395 12.395c5.775 5.792 13.762 9.376 22.587 9.376 0.013 0 0.026 0 0.039 0h-0.002z" />
<glyph unicode="&#xe959;" glyph-name="star" d="M512 789.333l94.811-265.48h246.523l-208.589-151.706 78.215-265.48-210.959 151.706-210.959-151.706 78.215 265.48-208.589 151.706h246.523z" />
<glyph unicode="&#xe95a;" glyph-name="stopwatch" d="M549.339 832l74.655-76.79h-74.655v-79.463c54.397-7.028 104.199-29.152 145.508-62.189v0l52.087 53.602 52.785-54.32-52.111-53.577c39.384-52.018 63.058-117.202 63.058-188.053 0-169.394-133.984-307.21-298.667-307.21s-298.667 137.816-298.667 307.21c0 156.352 114.231 285.531 261.327 304.537v0 79.463h-74.655l74.655 76.79h74.679zM512 601.605c-123.518 0-223.988-103.368-223.988-230.395 0-127.076 100.47-230.42 223.988-230.42s224.012 103.344 224.012 230.42c0 127.027-100.494 230.395-224.012 230.395zM549.323 524.798l0.013-87.068c22.315-13.285 37.331-38.107 37.331-66.53 0-42.416-33.442-76.815-74.679-76.815-41.213 0-74.655 34.398-74.655 76.815 0 28.405 14.997 53.213 37.281 66.505l0.029 87.093h74.679z" />
<glyph unicode="&#xe95b;" glyph-name="tick-circle" d="M464.076 290.517l241.357 241.357-47.931 47.929-193.427-193.429-97.57 97.571-47.929-47.928 145.498-145.5zM512.005 105.647c-47.356 0-91.861 8.989-133.516 26.962s-77.884 42.363-108.696 73.175c-30.811 30.811-55.204 67.043-73.177 108.694-17.973 41.656-26.96 86.164-26.96 133.516 0 47.358 8.987 91.864 26.96 133.518s42.366 77.884 73.177 108.696c30.811 30.811 67.042 55.204 108.696 73.177s86.16 26.96 133.516 26.96c47.355 0 91.864-8.987 133.514-26.96 41.656-17.973 77.888-42.366 108.699-73.177s55.201-67.042 73.175-108.696c17.973-41.655 26.962-86.16 26.962-133.518 0-47.355-8.989-91.861-26.962-133.516-17.973-41.651-42.363-77.883-73.175-108.694s-67.043-55.201-108.699-73.175c-41.651-17.973-86.159-26.962-133.514-26.962z" />
<glyph unicode="&#xe95c;" glyph-name="tick" d="M407.184 192l-236.517 242.247 53.893 55.137 182.625-187.035 392.257 401.651 53.893-55.187z" />
<glyph unicode="&#xe95d;" glyph-name="trolley" d="M417.794 258.374c41.994 0 76.049-33.973 76.049-75.866 0-41.868-34.055-75.842-76.049-75.842s-76.049 33.973-76.049 75.842c0 41.892 34.055 75.866 76.049 75.866zM702.921 258.374c41.994 0 76.049-33.973 76.049-75.866 0-41.868-34.055-75.842-76.049-75.842s-76.049 33.973-76.049 75.842c0 41.892 34.055 75.866 76.049 75.866zM265.728 789.333c27.146 0 52.798-18.747 60.981-44.557v0l9.996-31.285h475.526c14.431 0 27.514-7.161 35.011-19.113 7.448-12.001 8.11-26.861 1.74-39.791v0l-109.933-219.312c-7.399-14.983-23.888-25.199-40.867-25.199v0h-264.677l12.079-37.933h333.376v-75.842h-342.147c-27.171 0-52.823 18.747-61.006 44.557v0l-118.875 372.633h-86.266v75.842z" />
<glyph unicode="&#xe95e;" glyph-name="ah-lightbulb" d="M628.651 139.2h-233.984c-38.14 0.049-69.045 30.957-69.088 69.094v0.004c0 62.827-21.419 124.213-60.288 173.781-43.947 56.032-66.987 123.36-66.603 194.688 0.448 82.315 32.352 159.808 89.856 218.197 44.774 45.691 103.508 77.548 169.293 88.663l1.822 0.254c13.355 2.342 28.965 3.868 44.863 4.228l0.363 0.007c84.757 1.707 164.395-29.451 224.8-87.893l1.184-1.216c59.573-58.272 92.875-136.416 93.813-220.245 0.011-0.999 0.018-2.179 0.018-3.361 0-73.875-25.527-141.787-68.241-195.398l0.49 0.636c-38.187-48.085-59.2-109.28-59.2-172.341-0.042-38.145-30.954-69.056-69.095-69.099h-0.004zM511.669 824.181c-14.669-0.004-29.044-1.253-43.027-3.647l1.502 0.213c-53.734-9.034-100.417-34.357-135.959-70.636l-0.041-0.042c-45.728-46.453-71.104-108.107-71.456-173.653-0.309-56.736 18.016-110.272 52.96-154.837 47.68-60.779 73.92-136.203 73.92-212.373 0-3.712 2.293-6.005 5.099-6.005h233.984c2.811 0.006 5.088 2.286 5.088 5.099 0 0 0 0 0 0v0c0 77.44 25.952 152.779 73.067 212.128 33.587 42.137 53.892 96.156 53.892 154.918 0 0.947-0.005 1.892-0.016 2.837l0.001-0.144c-0.747 67.2-27.584 129.76-75.552 176.192-0.369 0.35-0.716 0.698-1.055 1.054l-0.012 0.012c-46.613 44.555-107.595 68.885-172.395 68.885zM479.691 590.101h64v-418.891h-64zM328.491 74.4h366.4v-64h-366.4z" />
<glyph unicode="&#xe95f;" glyph-name="twitter" d="M853.333 681.003c-25.088-11.136-52.096-18.645-80.427-22.059 28.928 17.323 51.115 44.8 61.611 77.483-27.093-16.043-57.088-27.691-88.96-33.963-25.557 27.221-61.995 44.203-102.229 44.203-77.355 0-140.075-62.677-140.075-140.032 0-10.965 1.237-21.675 3.627-31.915-116.395 5.845-219.648 61.568-288.683 146.304-12.032-20.651-18.944-44.715-18.944-70.4 0-48.597 24.704-91.435 62.293-116.565-22.955 0.725-44.544 7.040-63.445 17.536v-1.792c0-67.84 48.299-124.459 112.299-137.301-11.691-3.243-24.064-4.949-36.864-4.949-9.045 0-17.792 0.896-26.325 2.517 17.792-55.637 69.547-96.128 130.773-97.237-47.915-37.589-108.245-59.947-173.909-59.947-11.264 0-22.4 0.64-33.408 1.92 61.995-39.723 135.595-62.891 214.699-62.891 257.621 0 398.507 213.419 398.507 398.464 0 6.101-0.128 12.117-0.427 18.133 27.392 19.755 51.157 44.416 69.888 72.491z" />
<glyph unicode="&#xe960;" glyph-name="unlock" d="M512 275.191c-30.916 0-56.009 25.786-56.009 57.611 0 31.8 25.093 57.586 56.009 57.586 30.94 0 56.009-25.786 56.009-57.586 0-31.825-25.069-57.611-56.009-57.611v0zM698.673 639.988c0 105.893-83.749 192.012-186.673 192.012s-186.649-86.12-186.649-192.012v-115.198h-93.348c-10.249 0-18.67-8.637-18.67-19.179v-134.426c0-169.666 133.743-307.185 298.667-307.185 164.948 0 298.667 137.519 298.667 307.185v134.426c0 10.542-8.421 19.179-18.67 19.179h-391.991v115.198c0 63.55 50.235 115.198 111.994 115.198s111.994-51.647 111.994-115.198h74.679z" />
<glyph unicode="&#xe961;" glyph-name="user" d="M249.59 230.409c36.267 27.733 76.8 49.6 121.601 65.6 44.798 16.003 91.733 24 140.8 24s95.998-7.998 140.8-24c44.798-15.999 85.331-37.867 121.598-65.6 24.89 29.156 44.269 62.224 58.135 99.201s20.798 76.443 20.798 118.399c0 94.579-33.241 175.112-99.731 241.601s-147.022 99.733-241.6 99.733c-94.579 0-175.112-33.245-241.601-99.733s-99.733-147.022-99.733-241.601c0-41.956 6.934-81.422 20.8-118.399s33.244-70.045 58.133-99.201zM511.991 405.344c-41.956 0-77.333 14.4-106.132 43.199-28.803 28.799-43.202 64.18-43.202 106.136 0 41.952 14.4 77.332 43.202 106.132 28.799 28.8 64.177 43.2 106.132 43.2s77.333-14.4 106.132-43.2c28.799-28.8 43.199-64.179 43.199-106.132 0-41.956-14.4-77.337-43.199-106.136s-64.177-43.199-106.132-43.199zM511.991 21.344c-59.021 0-114.49 11.2-166.401 33.601-51.911 22.397-97.067 52.8-135.467 91.2s-68.8 83.555-91.2 135.465c-22.4 51.913-33.6 107.379-33.6 166.4s11.2 114.49 33.6 166.401c22.4 51.911 52.8 97.067 91.2 135.467s83.556 68.8 135.467 91.2c51.91 22.4 107.379 33.6 166.401 33.6s114.487-11.2 166.4-33.6c51.91-22.4 97.065-52.8 135.465-91.2s68.802-83.556 91.2-135.467c22.401-51.91 33.601-107.379 33.601-166.401s-11.2-114.487-33.601-166.4c-22.397-51.91-52.8-97.065-91.2-135.465s-83.555-68.802-135.465-91.2c-51.913-22.401-107.379-33.601-166.4-33.601z" />
<glyph unicode="&#xe962;" glyph-name="video-camera" d="M736.013 470.787v94.547c0 10.877-9.143 19.813-20.271 19.813h-104.827l-121.597 118.853h-280.236v-79.253h246.669l40.541-39.601h-348.022c-11.154 0-20.271-8.936-20.271-19.813v-396.187c0-10.902 9.117-19.813 20.271-19.813h567.472c11.128 0 20.271 8.911 20.271 19.813v94.547l202.654-114.36v435.813l-202.654-114.36z" />
<glyph unicode="&#xe963;" glyph-name="vimeo" d="M170.667 584.563l27.691-36.352c0 0 57.216 45.056 76.288 22.571 19.029-22.571 91.776-294.656 116.096-344.832 21.163-44.075 79.659-102.272 143.787-60.672 64.128 41.557 277.205 223.531 315.392 438.4 38.101 214.827-256.512 169.856-287.659-17.323 77.995 46.848 119.552-19.029 79.701-93.568-39.851-74.453-76.203-123.051-95.275-123.051-19.029 0-33.707 49.835-55.467 136.96-22.571 90.027-22.443 252.288-116.139 233.899-88.32-17.365-204.416-156.032-204.416-156.032z" />
<glyph unicode="&#xe964;" glyph-name="volume-high" d="M533.43 746.667v-640l-200.051 160h-40.015c-44.012 0-80.031 36.011-80.031 80.013v0 159.974c0 44.028 36.019 80.013 80.031 80.013v0h40.015l200.051 160zM759.741 652.953c124.79-124.762 124.79-327.785 0-452.573v0l-56.568 56.581c93.593 93.572 93.593 245.839 0 339.436v0zM634.907 568.107c77.968-78.002 77.968-204.878-0.026-282.881v0l-56.594 56.581c46.796 46.786 46.796 122.932 0 169.744v0z" />
<glyph unicode="&#xe965;" glyph-name="volume-low" d="M597.396 789.333v-682.667l-213.379 170.667h-42.681c-46.944 0-85.335 38.412-85.335 85.347v0 170.639c0 46.963 38.391 85.347 85.335 85.347v0h42.681l213.379 170.667zM705.631 598.87c83.163-83.202 83.163-218.537-0.027-301.739v0l-60.337 60.353c49.887 49.905 49.887 131.128-0.027 181.060v0z" />
<glyph unicode="&#xe966;" glyph-name="volume-off" d="M493.428 746.667v-640l-200.874 160h-40.326c-44.382 0-81.561 36.011-81.561 80.013v0 159.974c0 44.028 37.18 80.013 81.561 80.013v0h40.326l200.874 160zM838.957 584.947l57.043-56.556-102.595-101.717 102.595-101.717-57.043-56.556-102.595 101.717-102.595-101.717-57.069 56.556 102.621 101.717-102.621 101.717 57.069 56.556 102.595-101.717 102.595 101.717z" />
<glyph unicode="&#xe967;" glyph-name="close-circle" d="M270.528 689.464c133.157 133.157 349.811 133.157 482.951 0.017s133.157-349.811 0-482.968c-133.14-133.14-349.811-133.122-482.951 0.017s-133.14 349.794 0 482.934zM324.182 635.81c-103.555-103.555-103.555-272.072 0-375.626s272.072-103.555 375.626 0c103.572 103.572 103.555 272.072 0 375.626s-272.054 103.572-375.626 0zM458.336 555.32l53.671-53.671 53.671 53.671 53.654-53.654-53.671-53.671 53.671-53.671-53.654-53.654-53.671 53.671-53.671-53.671-53.654 53.654 53.671 53.671-53.671 53.671 53.654 53.654z" />
<glyph unicode="&#xe968;" glyph-name="close" d="M358.162 234.128l-60.034 59.735 154.369 154.67-154.369 153.596 60.034 59.733 154.37-154.255 153.296 154.255 60.035-59.733-154.37-153.596 154.37-154.67-60.035-59.735-153.296 154.253-154.37-154.253z" />
<glyph unicode="&#xe969;" glyph-name="youtube" d="M441.515 375.381v191.829l184.448-96.256-184.448-95.573zM846.507 600.405c0 0-6.656 47.019-27.136 67.755-25.941 27.221-55.040 27.349-68.395 28.928-95.531 6.912-238.848 6.912-238.848 6.912h-0.299c0 0-143.275 0-238.805-6.912-13.355-1.579-42.411-1.707-68.395-28.928-20.48-20.736-27.136-67.755-27.136-67.755s-6.827-55.253-6.827-110.464v-51.797c0-55.253 6.827-110.507 6.827-110.507s6.656-47.019 27.136-67.755c25.984-27.179 60.075-26.325 75.264-29.184 54.613-5.205 232.107-6.827 232.107-6.827s143.445 0.213 238.976 7.125c13.355 1.579 42.453 1.707 68.395 28.885 20.48 20.736 27.136 67.755 27.136 67.755s6.827 55.253 6.827 110.507v51.797c0 55.211-6.827 110.464-6.827 110.464v0z" />
<glyph unicode="&#xe96a;" glyph-name="youtube-logo" d="M728.619 471.296c68.864 0 124.715-55.893 124.715-124.757v0-100.267c0-68.821-55.851-124.715-124.715-124.715v0h-433.28c-68.864 0-124.672 55.893-124.672 124.715v0 100.267c0 68.864 55.808 124.757 124.672 124.757v0zM696.064 370.176c-15.488 0-28.032-4.736-37.803-14.123-9.813-9.429-14.677-21.717-14.677-36.651v0-77.611c0-16.683 4.523-29.739 13.355-39.168 8.875-9.557 21.077-14.251 36.523-14.251 17.195 0 30.165 4.437 38.741 13.312 8.747 9.003 13.056 22.4 13.056 40.107v0 8.875h-35.541v-7.893c0-10.155-1.195-16.683-3.413-19.712-2.304-2.987-6.315-4.48-12.032-4.48-5.504 0-9.429 1.749-11.733 5.248-2.219 3.541-3.371 9.856-3.371 18.944v0 32.555h66.091v44.075c0 16.384-4.267 28.928-12.757 37.675-8.448 8.704-20.608 13.099-36.437 13.099zM436.096 365.867h-34.56v-144.469c0-10.325 2.048-17.963 6.059-23.125 4.096-5.205 10.027-7.723 18.091-7.723 6.443 0 13.141 1.792 20.011 5.547 6.955 3.627 13.568 8.96 19.925 15.957v0-18.987h34.56v172.8h-34.56v-131.243c-3.243-3.755-6.784-6.827-10.709-9.301-3.883-2.432-7.125-3.584-9.6-3.584-3.2 0-5.589 0.853-7.083 2.773-1.408 1.792-2.133 4.736-2.133 8.832v0 132.523zM561.067 427.307h-34.944v-234.24h34.944v13.269c4.48-5.333 9.472-9.216 14.763-11.733 5.248-2.517 11.264-3.712 18.048-3.712 10.197 0 18.091 3.2 23.467 9.728 5.461 6.571 8.107 15.957 8.107 28.117v0 95.915c0 14.123-2.816 24.917-8.619 32.299-5.76 7.381-14.080 11.008-25.045 11.008-5.376 0-10.667-1.323-15.957-4.096-5.163-2.731-10.112-6.784-14.763-11.989v0 75.435zM386.389 427.307h-119.467v-34.048h40.235v-200.192h38.955v200.192h40.277v34.048zM575.505 340.535c4.608 0 8.235-1.493 10.752-4.48 2.475-3.029 3.627-7.424 3.627-13.312v0-89.216c0-5.547-1.024-9.429-2.944-11.904-2.005-2.475-5.12-3.712-9.344-3.712-2.944 0-5.675 0.683-8.32 1.877-2.688 1.195-5.419 3.371-8.235 6.101v0 107.691c2.389 2.389 4.693 4.181 7.125 5.291s4.864 1.664 7.339 1.664zM694.592 339.951c5.248 0 9.173-1.579 11.52-4.779 2.347-3.072 3.584-8.277 3.584-15.531v0-17.451h-30.507v17.451c0 7.253 1.152 12.459 3.584 15.531 2.389 3.2 6.315 4.779 11.819 4.779zM507.887 726.426c16.085 0 29.227-4.608 39.595-13.824 10.197-9.131 15.317-21.12 15.317-35.584v0-98.304c0-16.299-4.992-29.013-15.061-38.357-10.112-9.259-23.979-13.867-41.643-13.867-17.024 0-30.635 4.779-40.832 14.379-10.155 9.6-15.275 22.4-15.275 38.571v0 98.688c0 14.763 5.248 26.496 15.659 35.2 10.453 8.747 24.576 13.099 42.24 13.099zM633.156 721.6v-145.92c0-4.48 0.939-7.723 2.517-9.728 1.579-2.048 4.309-3.029 7.936-3.029 2.816 0 6.485 1.323 10.837 3.968 4.352 2.731 8.363 6.101 11.989 10.24v0 144.469h38.912v-190.336h-38.912v21.12c-7.125-7.765-14.592-13.739-22.4-17.749-7.723-4.011-15.232-6.144-22.528-6.144-9.045 0-15.744 2.901-20.352 8.619-4.523 5.589-6.827 14.080-6.827 25.429v0 159.061h38.827zM344.068 789.333l28.416-103.168h2.731l27.136 103.168h44.459l-50.987-150.997v-107.051h-43.733v102.229l-52.139 155.819h44.117zM505.967 693.444c-4.693 0-8.576-1.237-11.563-3.797-2.944-2.603-4.437-5.931-4.437-10.112v0-103.68c0-5.248 1.408-9.216 4.181-12.075 2.731-2.944 6.699-4.309 11.819-4.309 5.291 0 9.472 1.451 12.544 4.352 3.115 2.901 4.693 6.955 4.693 12.032v0 103.68c0 4.181-1.579 7.509-4.736 10.112-3.157 2.56-7.339 3.797-12.501 3.797z" />
<glyph unicode="&#xe96b;" glyph-name="ah-location" d="M512-8.192h-0.032c-12.084 0.012-22.598 6.72-28.034 16.613l-0.084 0.166-238.24 440.939c-2.219 3.413-4.757 8.427-8.64 17.184-19.829 41.141-30.517 87.072-30.517 131.947 0 168.48 137.067 305.547 305.547 305.547s305.547-137.067 305.547-305.547c0-44.779-10.635-90.592-30.763-132.501-1.024-2.24-7.072-15.488-9.621-20.587l-237.035-437.013c-5.526-10.053-16.044-16.754-28.128-16.757v0zM299.328 484.416c0.587-0.875 1.131-1.771 1.632-2.699l211.093-390.699 208.373 384.128c2.016 4.053 8.245 17.803 8.245 17.803l0.299 0.651c16.085 33.387 24.587 69.717 24.587 105.056 0 133.184-108.363 241.547-241.547 241.547s-241.547-108.373-241.547-241.547c0-35.328 8.501-71.659 24.587-105.067 0.427-0.949 2.72-6.187 4.288-9.173zM295.499 489.067v0zM295.435 489.131c0.017-0.019 0.034-0.037 0.053-0.053l-0.052 0.052zM512 443.616c-84.8 0-153.781 68.981-153.781 153.781 0 85.44 68.981 154.965 153.781 154.965s153.781-68.992 153.781-153.781c0-85.451-68.981-154.965-153.781-154.965zM512 688.363c-49.504 0-89.781-40.811-89.781-90.965 0-49.504 40.277-89.781 89.781-89.781s89.781 40.811 89.781 90.965c0 49.493-40.277 89.781-89.781 89.781z" />
<glyph unicode="&#xe96c;" glyph-name="ah-megaphone" d="M630.656 192.939c-3.2 0-6.432 0.48-9.557 1.461l-317.12 99.2c-13.118 4.193-22.451 16.276-22.453 30.538v0 374.443c0 14.26 9.329 26.342 22.216 30.476l0.227 0.063 317.131 99.2c2.857 0.926 6.145 1.461 9.557 1.461 17.673 0 32-14.326 32-31.999v0-572.843c0-17.673-14.327-32-32-32v0zM345.525 347.659l253.12-79.179v485.76l-253.12-79.179v-327.403zM291.477 44.395h-75.552c-29.834 0.030-54.012 24.204-54.048 54.034v197.391c-62.955 14.635-110.016 71.2-110.016 138.539v154.016c0 78.421 63.797 142.219 142.219 142.219h119.445v-64h-119.445c-43.125 0-78.219-35.093-78.219-78.219v-154.027c0-43.125 35.093-78.219 78.219-78.219h119.445c17.673 0 32-14.327 32-32v0-225.707c-0.036-29.833-24.214-54.007-54.045-54.037h-0.003zM225.877 108.395h55.648v183.744h-55.648v-183.744zM729.685 544.512h210.144v-64h-210.144zM701.067 651.573l190.613 88.48 26.944-58.059-190.613-88.48zM701.067 373.44l26.944 58.048 190.613-88.469-26.944-58.048z" />
<glyph unicode="&#xe96d;" glyph-name="ah-padlock" d="M761.173 530.592h-64v93.056c0 101.824-82.837 184.661-184.651 184.661s-184.661-82.837-184.661-184.661v-93.056h-64v93.056c0 137.109 111.552 248.661 248.661 248.661s248.661-111.563 248.661-248.661v-93.056zM786.229 23.637h-547.413c-41.173 0-74.667 33.493-74.667 74.667v389.621c0 41.173 33.493 74.667 74.667 74.667h547.413c41.173 0 74.667-33.493 74.667-74.667v-389.621c0-41.173-33.493-74.667-74.667-74.667zM238.816 498.592c-5.867 0-10.667-4.789-10.667-10.667v-389.621c0-5.867 4.8-10.667 10.667-10.667h547.413c5.867 0 10.667 4.8 10.667 10.667v389.621c0 5.877-4.8 10.667-10.667 10.667h-547.413zM512.523 172.043c-66.763 0-121.077 54.315-121.077 121.067s54.315 121.088 121.077 121.088 121.077-54.325 121.077-121.077-54.315-121.077-121.067-121.077zM512.523 350.197c-31.467 0-57.077-25.6-57.077-57.077 0-31.467 25.6-57.077 57.077-57.077s57.077 25.6 57.077 57.067c0 31.477-25.6 57.088-57.077 57.088z" />
<glyph unicode="&#xe96e;" glyph-name="ah-person" d="M512.309 476.949c-102.453 0-185.813 83.349-185.813 185.792s83.371 185.792 185.824 185.792c102.443 0 185.792-83.349 185.792-185.792s-83.36-185.792-185.792-185.792zM512.309 784.533c-67.168 0-121.813-54.635-121.813-121.792s54.645-121.792 121.813-121.792 121.792 54.635 121.792 121.792-54.635 121.792-121.781 121.792zM891.52 47.2h-758.421c-17.673 0-32 14.327-32 32v0 62.56c0 151.2 180.619 269.643 411.2 269.643 230.592 0 411.221-118.443 411.221-269.653v-62.549c0-17.673-14.327-32-32-32v0zM165.099 111.2h694.421v30.56c0 111.467-159.008 205.643-347.211 205.643s-347.211-94.176-347.211-205.653v-30.549z" />
<glyph unicode="&#xe96f;" glyph-name="ah-pound" d="M624.506 32.603c-49.067 0-83.2 22.4-113.067 41.6-25.6 16-46.933 30.933-76.8 30.933-34.133 0-91.733-34.133-120.533-56.533-11.733-8.533-27.733-8.533-39.467 0s-14.933 24.533-9.6 38.4c43.733 100.267 113.067 275.2 113.067 318.933 0 29.867-20.267 98.133-53.333 183.467-22.4 57.6-18.133 120.533 11.733 174.933 28.8 51.2 77.867 85.333 133.333 96 5.333 1.067 10.667 2.133 16 2.133 110.933 10.667 209.067-71.467 218.667-182.4l-64-5.333c-6.4 75.733-73.6 131.2-149.333 124.8-4.267 0-7.467-1.067-11.733-1.067-37.333-6.4-69.333-28.8-88.533-64-20.267-37.333-23.467-81.067-8.533-120.533 26.667-67.2 57.6-157.867 57.6-206.933 0-48-45.867-168.533-81.067-254.933 23.467 10.667 49.067 18.133 72.533 18.133 49.067 0 82.133-21.333 112-41.6 25.6-17.067 46.933-30.933 77.867-30.933 60.8 0 108.8 67.2 108.8 67.2l52.267-36.267c2.133-5.333-61.867-96-157.867-96zM241.573 461.403h323.2v-64h-323.2v64z" />
<glyph unicode="&#xe970;" glyph-name="ah-question" d="M543.691 229.536h-64v32c0 89.28 46.709 172.192 124.939 221.76 48.969 31.433 80.95 85.607 80.95 147.25 0 3.84-0.124 7.652-0.369 11.431l0.027-0.515c-5.323 85.739-76.651 157.067-162.389 162.389-48.587 3.061-94.891-13.6-130.219-46.805-35.349-33.227-54.827-78.24-54.827-126.741v-32h-64v32c0 65.387 27.339 128.587 74.997 173.376 48.341 45.44 111.531 68.16 178.016 64.053 119.328-7.413 214.891-102.976 222.293-222.293 0.297-4.46 0.467-9.668 0.467-14.915 0-84.272-43.726-158.332-109.727-200.728l-0.948-0.57c-59.616-37.76-95.2-100.459-95.2-167.701v-32zM563.797 111.317c0-28.778-23.329-52.107-52.107-52.107s-52.107 23.329-52.107 52.107c0 28.778 23.329 52.107 52.107 52.107s52.107-23.329 52.107-52.107z" />
<glyph unicode="&#xe971;" glyph-name="ah-shapes" d="M856.171 46.88h-228.299c-41.173 0-74.667 33.493-74.667 74.667v228.299c0 41.173 33.493 74.667 74.667 74.667h228.299c41.173 0 74.667-33.493 74.667-74.667v-228.299c0-41.173-33.493-74.667-74.667-74.667zM627.872 360.512c-5.877 0-10.667-4.779-10.667-10.667v-228.299c0-5.877 4.789-10.667 10.667-10.667h228.299c5.888 0 10.667 4.789 10.667 10.667v228.299c0 5.888-4.779 10.667-10.667 10.667h-228.299zM298.155 30.699c-113.035 0-204.992 91.968-204.992 205.003 0 113.024 91.947 204.992 204.992 204.992 113.035 0 204.992-91.968 204.992-204.992 0-113.035-91.957-205.003-204.992-205.003zM298.155 376.693c-77.749 0-140.992-63.253-140.992-140.992 0-77.749 63.253-141.003 140.992-141.003s140.992 63.253 140.992 141.003c0 77.739-63.253 140.992-140.992 140.992zM708.267 476.288h-375.275c-17.673 0-31.999 14.327-31.999 32 0 5.891 1.592 11.41 4.369 16.151l-0.082-0.151 187.648 325.013c5.636 9.632 15.93 15.999 27.712 15.999s22.076-6.367 27.63-15.848l0.082-0.151 187.648-325.024c2.69-4.587 4.279-10.103 4.279-15.989 0-17.672-14.321-32-31.99-32.011h-0.001zM388.416 540.288h264.427l-132.203 229.013-132.213-229.013z" />
<glyph unicode="&#xe972;" glyph-name="ah-spanner" d="M296.832 31.573h-0.107c-0.031 0-0.068 0-0.105 0-21.251 0-40.477 8.672-54.331 22.671l-0.006 0.007-124.213 124.864c-29.856 29.995-29.792 78.752 0.139 108.683l235.669 235.669c-20.981 96.48 9.941 199.296 83.061 272.416 79.072 79.072 194.592 107.243 301.461 73.515 16.805-5.469 29.568-18.98 33.886-35.871l0.076-0.353c0.906-3.597 1.425-7.726 1.425-11.977 0-14.025-5.658-26.728-14.815-35.952l-131.229-131.25 90.027-90.027 131.243 131.232c9.217 9.16 21.92 14.823 35.946 14.823 4.217 0 8.314-0.512 12.233-1.477l-0.35 0.073c17.262-4.394 30.797-17.143 36.217-33.58l0.103-0.361c33.739-106.933 5.568-222.443-73.504-301.515-73.984-73.984-177.013-105.088-273.003-83.648l-235.413-235.403c-13.849-13.916-33.018-22.528-54.198-22.528-0.071 0-0.142 0-0.213 0h0.011zM647.872 819.371c-0.021 0-0.045 0-0.070 0-64.701 0-123.267-26.272-165.61-68.731l-0.005-0.005c-61.355-61.365-85.152-148.736-62.101-228.011 0.807-2.674 1.271-5.748 1.271-8.93 0-8.839-3.584-16.841-9.378-22.633l-248.523-248.501c-2.337-2.349-3.781-5.587-3.781-9.163 0-3.565 1.436-6.795 3.761-9.142l-0.001 0.001 124.213-124.853c3.307-3.328 6.912-3.989 9.184-3.808 2.016 0 5.867 0.491 9.173 3.787l248.341 248.341c5.778 5.8 13.772 9.389 22.604 9.389 3.283 0 6.45-0.496 9.43-1.417l-0.226 0.060c78.603-23.552 166.069 0.48 228.256 62.656 42.486 42.383 68.772 100.989 68.772 165.735 0 17.52-1.925 34.591-5.574 51.012l0.291-1.557-137.504-137.525c-5.791-5.792-13.792-9.374-22.629-9.374s-16.838 3.582-22.629 9.374l-135.275 135.296c-5.789 5.791-9.369 13.789-9.369 22.624s3.58 16.833 9.369 22.624l137.493 137.493c-14.875 3.339-31.959 5.255-49.49 5.259h-0.003zM719.168 808.363v0zM357.909 243.701c0-28.778-23.329-52.107-52.107-52.107s-52.107 23.329-52.107 52.107c0 28.778 23.329 52.107 52.107 52.107s52.107-23.329 52.107-52.107z" />
<glyph unicode="&#xe973;" glyph-name="ah-star" d="M765.163 28.331c-6.603 0-13.205 2.027-18.805 6.112l-228.395 165.931c-1.732 1.279-3.91 2.048-6.267 2.048s-4.534-0.768-6.296-2.068l0.029 0.020-228.405-165.931c-5.207-3.822-11.743-6.116-18.815-6.116-17.673 0-32 14.327-32 32 0 3.536 0.573 6.938 1.633 10.118l-0.065-0.226 87.253 268.491c0.334 0.986 0.526 2.123 0.526 3.304 0 3.535-1.725 6.667-4.378 8.601l-0.030 0.021-228.384 165.931c-8.033 5.885-13.19 15.284-13.19 25.888 0 17.672 14.324 31.997 31.995 32h282.326c0.001 0 0.003 0 0.004 0 4.709 0 8.704 3.057 10.108 7.295l0.022 0.075 87.253 268.48c4.305 12.931 16.296 22.090 30.427 22.090s26.122-9.159 30.361-21.864l0.065-0.226 87.243-268.48c1.422-4.313 5.414-7.371 10.121-7.371 0.008 0 0.016 0 0.024 0h282.292c17.671-0.003 31.995-14.328 31.995-32 0-10.604-5.157-20.003-13.1-25.825l-0.090-0.063-228.384-165.931c-2.679-1.955-4.4-5.084-4.4-8.616 0-1.183 0.193-2.322 0.55-3.385l-0.022 0.075 87.232-268.48c0.995-2.956 1.569-6.36 1.569-9.899 0-17.673-14.327-32-32-32-0.001 0-0.001 0-0.002 0v0zM511.68 266.453c15.392 0 30.763-4.779 43.893-14.315l148.715-108.053-56.8 174.827c-2.34 6.913-3.69 14.875-3.69 23.153 0 24.729 12.053 46.643 30.604 60.188l0.211 0.147 148.704 108.043h-183.808c-0.042 0-0.092 0-0.142 0-32.958 0-60.917 21.409-70.726 51.079l-0.151 0.526-56.8 174.816-56.8-174.827c-9.963-30.191-37.919-51.595-70.873-51.595-0.047 0-0.095 0-0.142 0h-183.812l148.704-108.043c18.76-13.692 30.81-35.605 30.81-60.331 0-8.271-1.348-16.227-3.837-23.661l0.153 0.525-56.8-174.827 148.715 108.053c12.138 8.937 27.382 14.306 43.88 14.315h0.002z" />
<glyph unicode="&#xe974;" glyph-name="ah-tick" d="M330.464 106.4c-0.008 0-0.017 0-0.027 0-8.824 0-16.812 3.584-22.586 9.375l-255.617 255.596 45.248 45.248 232.971-232.96 595.413 595.371 45.248-45.248-618.027-618.027c-5.774-5.786-13.757-9.365-22.576-9.365-0.013 0-0.026 0-0.039 0h0.002z" />
<glyph unicode="&#xe975;" glyph-name="ah-trophy" d="M512.001 223.999c-135.307 0-245.397 110.091-245.397 245.408v326.603c0 17.673 14.327 32 32 32v0h426.805c17.673 0 32-14.327 32-32v0-326.613c0-135.317-110.091-245.408-245.408-245.408zM330.603 764.020v-294.613c0-100.032 81.387-181.408 181.397-181.408 100.032 0 181.408 81.387 181.408 181.408v294.603h-362.805zM668.022 67.988h-312.032c-17.673 0-32 14.327-32 32v0c0 103.68 84.341 188.011 188.011 188.011s188.021-84.341 188.021-188.011c0-17.673-14.327-32-32-32v0zM392.182 131.988h239.648c-14.144 52.928-62.507 92.011-119.829 92.011s-105.685-39.083-119.829-92.011zM307.19 377.375h-8.587c-131.787 0-239.008 128.16-239.008 285.685v38.933c0 17.673 14.327 32 32 32v0h207.008v-64h-175.008v-6.933c0-122.24 78.507-221.685 175.008-221.685h8.576v-64zM725.409 377.375h-8.587v64h8.587c96.491 0 174.997 99.445 174.997 221.685v6.933h-174.997v64h206.997c17.673 0 32-14.327 32-32v0-38.933c0-157.525-107.211-285.685-238.997-285.685z" />
<glyph unicode="&#xe976;" glyph-name="ah-toolbox" d="M877.931 23.691h-731.861c-17.673 0-32 14.327-32 32v0 356.555c0 17.673 14.327 32 32 32v0h731.861c17.673 0 32-14.327 32-32v0-356.565c0-17.673-14.327-32-32-32v0zM178.069 87.691h667.861v292.555h-667.861v-292.565zM877.931 380.245h-731.861c-17.671 0.003-31.994 14.329-31.994 32 0 4.778 1.047 9.311 2.924 13.383l-0.082-0.199 120.064 265.483c5.151 11.183 16.262 18.805 29.153 18.805 0.003 0 0.007 0 0.010 0h491.711c12.891 0 24.001-7.623 29.070-18.607l0.082-0.198 120.075-265.493c1.792-3.87 2.837-8.4 2.837-13.173 0-17.669-14.321-31.994-31.989-32h-0.001zM195.669 444.245h632.661l-91.125 201.472h-450.421l-91.115-201.472zM626.848 645.717h-229.696c-17.673 0-32 14.327-32 32v0 60.565c0 73.909 60.128 134.027 134.027 134.027h25.643c73.899 0 134.027-60.117 134.027-134.027v-60.565c0-17.673-14.327-32-32-32v0zM429.152 709.717h165.696v28.565c-0.042 38.658-31.369 69.984-70.023 70.027h-25.647c-38.658-0.042-69.984-31.369-70.027-70.023v-28.569zM622.027 544.981h64v-293.365h-64zM337.973 544.981h64v-293.365h-64z" />
<glyph unicode="&#xe977;" glyph-name="bath" d="M298.674 576c-23.467 0-43.555 8.355-60.267 25.067s-25.067 36.8-25.067 60.267c0 23.467 8.355 43.555 25.067 60.267s36.8 25.067 60.267 25.067c23.467 0 43.555-8.355 60.267-25.067s25.067-36.8 25.067-60.267c0-23.467-8.355-43.555-25.067-60.267s-36.8-25.067-60.267-25.067zM213.34 21.333c-12.089 0-22.222 4.087-30.4 12.267s-12.267 18.313-12.267 30.4c-23.467 0-43.555 8.354-60.267 25.067s-25.067 36.8-25.067 60.267v256h128v32c0 27.021 9.245 49.779 27.733 68.267s41.245 27.733 68.267 27.733c14.222 0 27.378-2.846 39.467-8.533s23.111-13.513 33.067-23.467l59.733-66.133c5.687-5.687 11.2-11.021 16.533-16s11.2-9.6 17.6-13.867h292.267v347.733c0 9.955-3.554 18.489-10.667 25.6s-15.646 10.667-25.6 10.667c-4.267 0-8.354-0.889-12.267-2.667s-7.646-4.445-11.2-8l-53.333-53.333c3.554-12.089 4.267-24 2.133-35.733s-6.4-22.578-12.8-32.533l-117.333 119.467c9.954 6.4 20.621 10.489 32 12.267s22.754 0.533 34.133-3.733l53.333 53.333c11.379 11.378 24.354 20.267 38.933 26.667s30.046 9.6 46.4 9.6c34.133 0 62.933-11.733 86.4-35.2s35.2-52.267 35.2-86.4v-347.733h85.333v-256c0-23.467-8.354-43.554-25.067-60.267s-36.8-25.067-60.267-25.067c0-12.087-4.087-22.221-12.267-30.4s-18.313-12.267-30.4-12.267h-597.333z" />
<glyph unicode="&#xe978;" glyph-name="bed" d="M85.333 149.333v256c0 19.2 3.911 36.621 11.733 52.267s18.133 29.513 30.933 41.6v119.467c0 35.555 12.445 65.778 37.333 90.667s55.111 37.333 90.667 37.333h170.667c16.354 0 31.646-3.022 45.867-9.067s27.379-14.4 39.467-25.067c12.087 10.667 25.246 19.022 39.467 25.067s29.513 9.067 45.867 9.067h170.667c35.554 0 65.779-12.445 90.667-37.333s37.333-55.111 37.333-90.667v-119.467c12.8-12.087 23.113-25.954 30.933-41.6s11.733-33.067 11.733-52.267v-256h-85.333v85.333h-682.667v-85.333h-85.333zM554.667 533.333h256v85.333c0 12.089-4.087 22.222-12.267 30.4s-18.313 12.267-30.4 12.267h-170.667c-12.087 0-22.221-4.089-30.4-12.267s-12.267-18.311-12.267-30.4v-85.333zM213.333 533.333h256v85.333c0 12.089-4.087 22.222-12.267 30.4s-18.313 12.267-30.4 12.267h-170.667c-12.089 0-22.222-4.089-30.4-12.267s-12.267-18.311-12.267-30.4v-85.333z" />
<glyph unicode="&#xe979;" glyph-name="calendar-add" d="M728.317 38.394v122.88h-122.88v81.92h122.88v122.88h81.92v-122.88h122.88v-81.92h-122.88v-122.88h-81.92zM236.797 120.314c-22.528 0-41.813 8.020-57.856 24.064s-24.064 35.328-24.064 57.856v491.52c0 22.528 8.021 41.813 24.064 57.856s35.328 24.064 57.856 24.064h40.96v81.92h81.92v-81.92h245.76v81.92h81.92v-81.92h40.96c22.528 0 41.812-8.021 57.856-24.064s24.064-35.328 24.064-57.856v-249.856c-13.652 2.048-27.308 3.072-40.96 3.072s-27.308-1.024-40.96-3.072v86.016h-491.52v-327.68h286.72c0-13.652 1.024-27.308 3.072-40.96s5.804-27.308 11.264-40.96h-301.056z" />
<glyph unicode="&#xe97a;" glyph-name="grid-2x1" d="M143.359 161.273v252.588h737.28v-252.588h-737.28zM143.359 482.125v252.588h737.28v-252.588h-737.28z" />
<glyph unicode="&#xe97b;" glyph-name="map" d="M170.668 120.32c-18.432 0-34.417 6.771-47.957 20.308-13.539 13.541-20.309 29.528-20.309 47.96v518.826c0 18.432 6.77 34.418 20.309 47.957s29.525 20.309 47.957 20.309h682.67c18.428 0 34.415-6.769 47.956-20.309 13.537-13.539 20.308-29.525 20.308-47.957v-518.826c0-18.432-6.771-34.419-20.308-47.96-13.541-13.537-29.528-20.308-47.956-20.308h-682.67zM512.002 448c-12.059 0-22.356 4.268-30.892 12.8-8.532 8.532-12.8 18.829-12.8 30.892 0 12.059 4.268 22.356 12.8 30.888 8.536 8.536 18.833 12.8 30.892 12.8s22.356-4.264 30.892-12.8c8.532-8.532 12.8-18.829 12.8-30.888 0-12.063-4.268-22.36-12.8-30.892-8.536-8.532-18.833-12.8-30.892-12.8zM512.002 229.548c58.937 49.832 102.797 96.199 131.584 139.092s43.18 82.547 43.18 118.956c0 54.841-17.695 98.36-53.076 130.56-35.385 32.199-75.948 48.299-121.688 48.299s-86.301-16.1-121.686-48.299c-35.385-32.199-53.077-75.718-53.077-130.56 0-36.409 14.393-76.063 43.179-118.956s72.647-89.26 131.584-139.092z" />
<glyph unicode="&#xe97c;" glyph-name="cutlery" d="M298.667 21.333v390.4c-36.267 9.954-66.667 29.867-91.2 59.733s-36.8 64.711-36.8 104.533v298.667h85.333v-298.667h42.667v298.667h85.333v-298.667h42.667v298.667h85.333v-298.667c0-39.822-12.267-74.667-36.8-104.533s-54.933-49.779-91.2-59.733v-390.4h-85.333zM725.333 21.333v341.333h-128v298.667c0 59.022 20.8 109.333 62.4 150.933s91.913 62.4 150.933 62.4v-853.333h-85.333z" />
<glyph unicode="&#xe97d;" glyph-name="storage" d="M341.333 362.667v85.333h341.333v-85.333h-341.333zM341.333 234.667v85.333h341.333v-85.333h-341.333zM341.333 106.667v85.333h341.333v-85.333h-341.333zM512 832l426.667-384h-128v-341.333h-85.333v384h-426.667v-384h-85.333v341.333h-128l426.667 384z" />
<glyph unicode="&#xe97e;" glyph-name="flower" d="M469.333 21.333c-71.111 0-131.555 24.887-181.333 74.667s-74.667 110.221-74.667 181.333v85.333c50.489 0.713 98.133-9.6 142.933-30.933s82.487-50.133 113.067-86.4v163.2c-61.155 9.954-112 38.579-152.533 85.867s-60.8 102.933-60.8 166.933v145.067c0 18.489 8.178 31.467 24.533 38.933s31.645 5.155 45.867-6.933l78.933-68.267 73.6 89.6c8.533 9.955 19.554 14.933 33.067 14.933s24.533-4.978 33.067-14.933l73.6-89.6 78.933 68.267c14.221 12.089 29.513 14.4 45.867 6.933s24.533-20.445 24.533-38.933v-145.067c0-64-20.267-119.645-60.8-166.933s-91.379-75.913-152.533-85.867v-163.2c30.579 36.267 68.267 65.067 113.067 86.4s92.446 31.646 142.933 30.933v-85.333c0-71.113-24.887-131.554-74.667-181.333s-110.221-74.667-181.333-74.667h-85.333z" />
<glyph unicode="&#xe97f;" glyph-name="activities" d="M234.65 430.933l-166.4 166.4 166.4 166.4 166.4-166.4-166.4-166.4zM383.983 21.333v213.333c-43.378 3.554-86.4 8.713-129.067 15.467s-84.978 15.821-126.933 27.2l21.333 85.333c59.733-16.354 119.645-27.554 179.733-33.6s121.066-9.067 182.933-9.067c61.867 0 122.846 3.021 182.933 9.067s120 17.246 179.733 33.6l21.333-85.333c-41.954-11.379-84.267-20.446-126.933-27.2s-85.687-11.913-129.067-15.467v-213.333h-256zM511.983 661.333c-35.554 0-65.779 12.445-90.666 37.333-24.889 24.889-37.333 55.111-37.333 90.667s12.445 65.778 37.333 90.667c24.887 24.889 55.112 37.333 90.666 37.333s65.779-12.445 90.667-37.333c24.887-24.889 37.333-55.111 37.333-90.667s-12.446-65.778-37.333-90.667c-24.887-24.889-55.113-37.333-90.667-37.333zM511.983 362.667c-23.467 0-43.554 8.354-60.267 25.067s-25.066 36.8-25.066 60.267c0 23.467 8.354 43.554 25.066 60.267s36.8 25.067 60.267 25.067c23.467 0 43.554-8.354 60.267-25.067s25.067-36.8 25.067-60.267c0-23.467-8.354-43.554-25.067-60.267s-36.8-25.067-60.267-25.067zM727.45 448l-72.533 128 72.533 128h145.067l72.533-128-72.533-128h-145.067z" />
<glyph unicode="&#xe980;" glyph-name="computer" d="M256 64v85.333h213.333v128h-298.667c-23.467 0-43.555 8.354-60.267 25.067s-25.067 36.8-25.067 60.267v384c0 23.467 8.355 43.555 25.067 60.267s36.8 25.067 60.267 25.067h682.667c23.467 0 43.554-8.355 60.267-25.067s25.067-36.8 25.067-60.267v-384c0-23.467-8.354-43.554-25.067-60.267s-36.8-25.067-60.267-25.067h-298.667v-128h213.333v-85.333h-512z" />
<glyph unicode="&#xe981;" glyph-name="scissors" d="M810.667 64l-298.667 298.667-100.267-100.267c5.689-10.667 9.6-22.046 11.733-34.133s3.2-24.179 3.2-36.267c0-46.933-16.711-87.113-50.133-120.533s-73.6-50.133-120.533-50.133c-46.933 0-87.111 16.713-120.533 50.133s-50.133 73.6-50.133 120.533c0 46.933 16.711 87.113 50.133 120.533s73.6 50.133 120.533 50.133c12.089 0 24.178-1.067 36.267-3.2s23.467-6.046 34.133-11.733l100.267 100.267-100.267 100.267c-10.667-5.689-22.045-9.6-34.133-11.733s-24.178-3.2-36.267-3.2c-46.933 0-87.111 16.711-120.533 50.133s-50.133 73.6-50.133 120.533c0 46.933 16.711 87.111 50.133 120.533s73.6 50.133 120.533 50.133c46.933 0 87.111-16.711 120.533-50.133s50.133-73.6 50.133-120.533c0-12.089-1.067-24.178-3.2-36.267s-6.045-23.467-11.733-34.133l526.933-526.933v-42.667h-128zM640 490.667l-85.333 85.333 256 256h128v-42.667l-298.667-298.667zM256 618.667c23.467 0 43.555 8.355 60.267 25.067s25.067 36.8 25.067 60.267c0 23.467-8.355 43.555-25.067 60.267s-36.8 25.067-60.267 25.067c-23.467 0-43.555-8.355-60.267-25.067s-25.067-36.8-25.067-60.267c0-23.467 8.355-43.555 25.067-60.267s36.8-25.067 60.267-25.067zM512 426.667c5.687 0 10.667 2.133 14.933 6.4s6.4 9.246 6.4 14.933c0 5.687-2.133 10.667-6.4 14.933s-9.246 6.4-14.933 6.4c-5.687 0-10.667-2.133-14.933-6.4s-6.4-9.246-6.4-14.933c0-5.687 2.133-10.667 6.4-14.933s9.246-6.4 14.933-6.4zM256 106.667c23.467 0 43.555 8.354 60.267 25.067s25.067 36.8 25.067 60.267c0 23.467-8.355 43.554-25.067 60.267s-36.8 25.067-60.267 25.067c-23.467 0-43.555-8.354-60.267-25.067s-25.067-36.8-25.067-60.267c0-23.467 8.355-43.554 25.067-60.267s36.8-25.067 60.267-25.067z" />
<glyph unicode="&#xe982;" glyph-name="laundry" d="M256 363.733v128l-80-43.733-128 221.867 281.6 162.133h54.4c11.378-34.133 24.889-64 40.533-89.6 15.646-25.6 44.8-38.4 87.467-38.4s71.821 12.8 87.467 38.4c15.646 25.6 29.154 55.467 40.533 89.6h54.4l280.533-163.2-126.933-220.8-80 43.733v-204.8l-67.2-58.667c-4.979-4.267-10.667-7.646-17.067-10.133s-12.8-3.733-19.2-3.733c-4.267 0-9.246 1.421-14.933 4.267s-11.379 6.4-17.067 10.667l-113.067 97.067c-22.754 19.913-48.354 34.487-76.8 43.733-28.445 9.246-57.245 13.867-86.4 13.867-17.067 0-33.955-1.6-50.667-4.8s-33.245-8.354-49.6-15.467zM198.4 133.333l-55.467 65.067 92.8 78.933c16.355 14.221 35.022 25.067 56 32.533s42.845 11.2 65.6 11.2c22.755 0 44.445-3.733 65.067-11.2 20.621-7.467 39.113-18.313 55.467-32.533l123.733-105.6c8.533-7.113 18.667-12.621 30.4-16.533s23.646-5.867 35.733-5.867c12.8 0 24.713 1.779 35.733 5.333s20.8 9.246 29.333 17.067l92.8 80 55.467-66.133-92.8-78.933c-16.354-14.221-34.846-24.887-55.467-32s-42.313-10.667-65.067-10.667c-22.754 0-44.621 3.554-65.6 10.667s-39.646 17.779-56 32l-123.733 105.6c-8.533 7.113-18.311 12.621-29.333 16.533s-22.933 5.867-35.733 5.867c-12.089 0-24-1.954-35.733-5.867s-21.867-9.421-30.4-16.533l-92.8-78.933z" />
<glyph unicode="&#xe983;" glyph-name="book" d="M512 159.179c-28.885 22.861-60.172 40.616-93.869 53.253s-68.595 18.952-104.701 18.952c-25.275 0-50.096-3.313-74.464-9.925s-47.683-15.95-69.947-27.979c-12.637-6.621-24.821-6.315-36.552 0.902s-17.6 17.755-17.6 31.589v435.037c0 6.622 1.651 12.937 4.963 18.952s8.274 10.533 14.894 13.536c27.679 14.443 56.564 25.275 86.648 32.495s60.774 10.832 92.064 10.832c34.901 0 69.048-4.51 102.443-13.536s65.437-22.563 96.122-40.616v-436.843c30.691 19.251 62.881 33.693 96.573 43.32s67.696 14.443 101.989 14.443c21.664 0 42.875-1.805 63.632-5.416s41.67-9.027 62.725-16.248v433.232c9.027-3.011 17.898-6.169 26.627-9.48s17.302-7.37 25.72-12.184c6.621-3.011 11.583-7.521 14.894-13.536s4.963-12.338 4.963-18.952v-435.037c0-13.838-5.869-24.368-17.6-31.589s-23.915-7.519-36.552-0.902c-22.265 12.034-45.579 21.363-69.947 27.979s-49.189 9.925-74.464 9.925c-36.103 0-71.001-6.315-104.701-18.952s-64.984-30.385-93.869-53.253zM584.205 339.69v342.974l180.516 180.516v-361.027l-180.516-162.464z" />
</font>
</defs>
</svg>
